<?xml version="1.0" standalone="no"?>
<!DOCTYPE svg PUBLIC "-//W3C//DTD SVG 1.1//EN" "http://www.w3.org/Graphics/SVG/1.1/DTD/svg11.dtd" >
<svg xmlns="http://www.w3.org/2000/svg">
<metadata>
This is a custom SVG webfont generated by Font Squirrel.
Foundry     : Dalton Maag Ltd
</metadata>
<defs>
<font id="AllerLightRegular" horiz-adv-x="1228" >
<font-face units-per-em="2048" ascent="1638" descent="-410" />
<missing-glyph horiz-adv-x="512" />
<glyph unicode=" "  horiz-adv-x="512" />
<glyph unicode="&#x09;" horiz-adv-x="512" />
<glyph unicode="&#xa0;" horiz-adv-x="512" />
<glyph unicode="!" horiz-adv-x="579" d="M197 86q0 45 6 88q43 6 86 6q45 0 88 -6q6 -43 6 -86q0 -45 -6 -88q-43 -6 -86 -6q-45 0 -88 6q-6 43 -6 86zM223 1473q16 2 32.5 3t33.5 1q20 0 39.5 -1t40.5 -3l-9 -1053q-16 -2 -32.5 -3t-32.5 -1t-31.5 1t-32.5 3z" />
<glyph unicode="&#x22;" horiz-adv-x="845" d="M154 922v551q14 2 34.5 3t36.5 1q18 0 37 -1t33 -3v-551q-14 -2 -32.5 -3t-37.5 -1q-16 0 -36.5 1t-34.5 3zM551 922v551q14 2 34.5 3t36.5 1q18 0 37 -1t33 -3v-551q-14 -2 -32.5 -3t-37.5 -1q-16 0 -36.5 1t-34.5 3z" />
<glyph unicode="#" horiz-adv-x="1507" d="M147 489q0 16 1.5 33t3.5 33h280l35 406h-272q-6 27 -7 57q0 29 7 59h282l29 338q18 4 36 4h36h30q14 0 31 -2l-29 -340h424l29 338q18 4 37 4h37h30q14 0 31 -2l-29 -340h258q2 -12 3.5 -24.5t1.5 -26.5q0 -16 -1 -32.5t-4 -32.5h-268l-35 -406h258q2 -12 3 -25.5 t1 -27.5q0 -16 -1 -32.5t-3 -33.5h-268l-31 -377q-16 -2 -32.5 -3t-32.5 -1t-32.5 1t-33.5 3l31 377h-424l-31 -377q-16 -2 -34.5 -3t-34.5 -1t-34.5 1t-35.5 3l33 377h-270q-2 12 -3.5 25.5t-1.5 27.5zM567 555h424l35 406h-426z" />
<glyph unicode="$" d="M170 33q4 31 14.5 66.5t22.5 64.5q29 -8 59.5 -18.5t68.5 -18.5t85 -14.5t108 -6.5q195 0 286 83t91 210q0 61 -15.5 104.5t-53 79t-104 68.5t-167.5 72q-72 27 -136 56.5t-113.5 72.5t-78 103.5t-28.5 152.5q0 143 89 236.5t261 119.5v185q27 6 57 6q29 0 60 -6v-176 q45 0 91 -4.5t87 -10.5t75 -14t54 -14q-4 -31 -11 -63t-18 -60q-49 16 -125.5 29.5t-152.5 13.5q-170 0 -244 -66.5t-74 -173.5q0 -55 22.5 -95t62.5 -70t95.5 -54.5t118.5 -48.5q86 -35 161 -71t128 -84t84 -113.5t31 -159.5q0 -178 -102.5 -286t-282.5 -138v-232 q-29 -6 -55 -6q-31 0 -62 6v219q-12 -2 -20 -2h-19q-121 0 -200.5 17.5t-149.5 40.5z" />
<glyph unicode="%" horiz-adv-x="2150" d="M506 0l991 1448q16 2 33.5 3t34.5 1q20 0 39.5 -1t40.5 -3l-990 -1448q-20 -4 -39 -4h-36h-38q-20 0 -36 4zM86 1038q0 92 23.5 171t69.5 137.5t117 92.5t167 34q94 0 164.5 -34t117 -92.5t70 -137.5t23.5 -171t-23.5 -172t-70 -138t-118 -91t-165.5 -33t-165 33t-117 91 t-69.5 138t-23.5 172zM229 1038q0 -154 54.5 -235.5t177.5 -81.5q119 0 176 82t57 235q0 154 -54 236t-177 82q-119 0 -176.5 -82t-57.5 -236zM1284 413q0 92 23.5 171t69.5 137.5t117 92.5t167 34q94 0 164.5 -34t117 -92.5t70 -137.5t23.5 -171t-23.5 -172t-70 -138 t-118 -91t-165.5 -33t-165 33t-117 91t-69.5 138t-23.5 172zM1427 413q0 -154 54.5 -235.5t177.5 -81.5q119 0 176 82t57 235q0 154 -54 236t-177 82q-119 0 -176.5 -82t-57.5 -236z" />
<glyph unicode="&#x26;" horiz-adv-x="1556" d="M137 418q0 61 18.5 127.5t53.5 125t85 105.5t114 72q-96 35 -160 108.5t-64 200.5q0 88 34 152.5t92.5 105.5t136 61.5t163.5 20.5q49 0 107.5 -6t124.5 -27q-4 -37 -11.5 -59.5t-21.5 -48.5q-43 10 -87 18t-101 8q-78 0 -133.5 -20.5t-90.5 -52t-52 -72.5t-17 -82 q0 -111 70.5 -166t224.5 -55h507v186l127 123h9v-309h256q2 -14 3 -29.5t1 -32.5q0 -16 -1 -31.5t-3 -31.5h-256v-340q0 -125 -43 -217t-120 -153.5t-183.5 -92.5t-235.5 -31q-113 0 -212 26t-174 79t-118 137t-43 201zM291 430q0 -152 102.5 -235.5t294.5 -83.5 q137 0 222 32.5t132.5 88t65.5 128t22 152.5v297h-466q-88 0 -157 -32t-117 -85t-73.5 -120.5t-25.5 -141.5z" />
<glyph unicode="'" horiz-adv-x="448" d="M154 922v551q14 2 34.5 3t36.5 1q18 0 37 -1t33 -3v-551q-14 -2 -32.5 -3t-37.5 -1q-16 0 -36.5 1t-34.5 3z" />
<glyph unicode="(" horiz-adv-x="593" d="M102 623q0 154 22.5 299t59.5 271t83 227.5t91 168.5q16 2 32 3t32 1q18 0 34.5 -1t35.5 -3q-25 -45 -68 -129t-84 -207t-70.5 -280.5t-29.5 -349.5q0 -193 29.5 -350.5t70.5 -279.5t84 -206t68 -129q-16 -2 -37 -3t-39 -1q-14 0 -28.5 1t-29.5 3q-45 68 -91 168t-83 226 t-59.5 271.5t-22.5 299.5z" />
<glyph unicode=")" horiz-adv-x="593" d="M102 -342q25 45 68 129t84 206t70.5 279.5t29.5 350.5t-29.5 350t-70.5 280t-84 207t-68 129q18 2 35 3t35 1q16 0 31.5 -1t32.5 -3q45 -68 91 -169t82.5 -227t59.5 -271.5t23 -298.5q0 -154 -23 -299.5t-59.5 -271.5t-82.5 -226t-91 -168q-14 -2 -28.5 -3t-29.5 -1 q-18 0 -39 1t-37 3z" />
<glyph unicode="*" horiz-adv-x="995" d="M117 1157q6 53 33 98l243 -69q-10 -61 -37 -119zM242 803l141 211q51 -27 102 -72l-159 -201q-53 25 -84 62zM455 1219l12 254q25 6 51 6q23 0 51 -6l11 -254q-16 -4 -31 -5h-31h-32q-15 1 -31 5zM547 942q45 43 100 76l141 -215q-20 -20 -39.5 -34.5t-43.5 -25.5z M631 1188l248 67q14 -25 22 -48t8 -50l-237 -88q-12 27 -22.5 57.5t-18.5 61.5z" />
<glyph unicode="+" d="M193 685v34v33q0 16 4 32h352v379q16 2 32.5 3t32.5 1t33 -1t35 -3v-379h352q2 -16 3 -32.5t1 -32.5t-1 -33.5t-3 -34.5h-352v-379q-18 -4 -35 -4h-33h-32q-16 0 -33 4v379h-352q-4 17 -4 34z" />
<glyph unicode="," horiz-adv-x="419" d="M61 -231l111 405q16 2 34.5 3t35.5 1q16 0 34.5 -1t36.5 -3l-110 -405q-20 -4 -38 -5h-34h-36q-18 1 -34 5z" />
<glyph unicode="-" horiz-adv-x="722" d="M88 582q0 16 1 37.5t3 31.5h539q2 -10 3 -31.5t1 -37.5t-1 -37t-3 -31h-539q-2 10 -3 31t-1 37z" />
<glyph unicode="." horiz-adv-x="419" d="M117 86q0 45 6 88q43 6 86 6q45 0 88 -6q6 -43 6 -86q0 -45 -6 -88q-43 -6 -86 -6q-45 0 -88 6q-6 43 -6 86z" />
<glyph unicode="/" horiz-adv-x="841" d="M106 0l498 1473q31 6 62 6q33 0 69 -6l-499 -1473q-31 -6 -68 -6q-31 0 -62 6z" />
<glyph unicode="0" d="M111 653q0 147 32.5 272.5t96 215.5t158 140t216.5 50q123 0 217.5 -50t158 -140t96 -215t32.5 -273q0 -147 -32.5 -272t-96 -215t-158 -140.5t-217.5 -50.5t-217 50.5t-157.5 140.5t-96 215t-32.5 272zM258 653q0 -274 92 -411.5t264 -137.5q170 0 262.5 137.5 t92.5 411.5t-92.5 411.5t-262.5 137.5t-263 -137.5t-93 -411.5z" />
<glyph unicode="1" d="M229 1065l512 262h11v-1204h292q2 -16 4.5 -29.5t2.5 -30.5q0 -16 -2 -31.5t-5 -31.5h-747q-4 16 -4 57q0 20 1 40t3 26h315v1003l-329 -161q-18 20 -31 45.5t-23 54.5z" />
<glyph unicode="2" d="M121 27l399 426q61 66 115.5 127t94.5 122.5t63.5 122t23.5 125.5q0 129 -75.5 191.5t-219.5 62.5q-104 0 -183 -26.5t-140 -55.5q-10 27 -19.5 58.5t-17.5 62.5q55 27 147 58.5t211 31.5q100 0 183 -22.5t141.5 -69.5t90.5 -117.5t32 -167.5q0 -66 -18.5 -129 t-56.5 -128.5t-95.5 -136t-132.5 -150.5l-265 -281h625q2 -16 3 -34.5t1 -37.5q0 -16 -1 -30.5t-3 -28.5h-893z" />
<glyph unicode="3" d="M113 -92q18 59 57 123q55 -27 130 -43.5t167 -16.5q88 0 165 17.5t133 59.5t88 111.5t32 172.5q0 129 -85 198.5t-245 69.5q-45 0 -89 -3t-91 -13l-15 24l392 574h-582q-4 16 -4 30v31v34q0 17 4 34h809l8 -17l-403 -581q10 2 23 2h24q109 0 184.5 -37t123.5 -93.5 t69.5 -124t21.5 -128.5q0 -133 -46 -226.5t-124 -152.5t-179 -87t-214 -28q-43 0 -90 4t-95.5 13.5t-92 23t-76.5 29.5z" />
<glyph unicode="4" d="M96 176l615 1178q25 -4 55.5 -16.5t62.5 -30.5l-518 -1022h504v436q37 6 70 6t67 -6v-436h219q6 -35 7 -66q0 -33 -7 -63h-219v-279q-18 -4 -36 -4h-33h-34q-17 0 -34 4v279h-704z" />
<glyph unicode="5" d="M150 -104q6 31 16 60.5t31 61.5q55 -23 116.5 -35t157.5 -12q86 0 160 17.5t128 58.5t86 109.5t32 171.5q0 61 -16.5 118.5t-57.5 102.5t-110.5 72.5t-174.5 27.5q-66 0 -130 -10t-103 -16l-15 14l27 674h668q4 -16 4 -31v-31v-34q0 -17 -4 -33h-541l-14 -420q41 8 90 10 t65 2q102 0 187.5 -30.5t145.5 -87t94 -138.5t34 -186q0 -133 -46 -226.5t-123 -152.5t-178 -87t-212 -28q-98 0 -178 15.5t-139 42.5z" />
<glyph unicode="6" d="M150 563q0 174 43 334t135 286t235.5 210t343.5 106q6 -18 9.5 -40.5t3.5 -39.5q0 -33 -2 -43q-131 -14 -233.5 -63t-179.5 -126t-126 -177.5t-74 -216.5q-4 -23 -8 -43.5t-6 -42.5q51 98 151.5 161.5t237.5 63.5q78 0 155.5 -26.5t139 -83t99.5 -145.5t38 -214 q0 -119 -41 -210t-108.5 -152.5t-153.5 -93.5t-174 -32q-109 0 -199 31t-153.5 100.5t-98 181t-34.5 275.5zM307 442q0 -172 84 -254t236 -82q72 0 134 23t108 68t72 110.5t26 149.5q0 92 -26 157.5t-69 106.5t-101 60.5t-124 19.5q-68 0 -129 -25.5t-108.5 -72t-75 -113 t-27.5 -148.5z" />
<glyph unicode="7" d="M141 1239q0 37 6 72h947l6 -6l-639 -1459q-43 10 -73 23.5t-56 38.5l565 1274h-752q-2 12 -3 28.5t-1 28.5z" />
<glyph unicode="8" d="M119 367q0 92 31.5 159.5t82 116.5t112 82t118.5 55q-57 23 -107.5 54.5t-88.5 74.5t-59.5 98.5t-21.5 127.5q0 76 33 138t89.5 107t135 69t170.5 24t171 -24t135.5 -69t89 -107.5t32.5 -137.5q0 -72 -21.5 -127.5t-59 -98.5t-88 -74.5t-107.5 -54.5q57 -23 118.5 -55.5 t112 -81.5t82 -116.5t31.5 -159.5q0 -106 -43 -181t-112.5 -121.5t-158.5 -68t-182 -21.5q-92 0 -181 21.5t-158.5 68t-112.5 121.5t-43 181zM276 381q0 -129 85 -204t253 -75t253 76t85 205q0 66 -26.5 118t-71.5 92t-107.5 69.5t-132.5 52.5q-72 -23 -133 -52.5 t-106 -70.5t-72 -93t-27 -118zM330 1116q0 -57 24.5 -100t64.5 -76t91 -55.5t104 -36.5q53 14 104.5 36.5t91.5 55.5t64.5 76t24.5 100q0 109 -71.5 172.5t-213.5 63.5q-141 0 -212.5 -63.5t-71.5 -172.5z" />
<glyph unicode="9" d="M121 838q0 119 41 210t108.5 152.5t152.5 93t175 31.5q109 0 199 -30.5t153.5 -100.5t98 -182.5t34.5 -274.5q0 -174 -43 -333.5t-135 -285.5t-235.5 -210t-343.5 -107q-12 37 -13 88v19q0 8 2 16q131 14 233.5 63.5t179.5 126t126 177t74 217.5q4 23 8 43t6 43 q-51 -98 -151.5 -161.5t-237.5 -63.5q-78 0 -156 26.5t-139 83t-99 145.5t-38 214zM266 844q0 -92 25.5 -157.5t68.5 -106.5t101.5 -60.5t124.5 -19.5q68 0 129 25.5t108 71.5t75 112.5t28 148.5q0 172 -84 254t-236 82q-72 0 -134 -23.5t-108.5 -67.5t-72 -109.5 t-25.5 -149.5z" />
<glyph unicode=":" horiz-adv-x="419" d="M117 86q0 45 6 88q43 6 86 6q45 0 88 -6q6 -43 6 -86q0 -45 -6 -88q-43 -6 -86 -6q-45 0 -88 6q-6 43 -6 86zM117 963q0 45 6 88q43 6 86 6q45 0 88 -6q6 -43 6 -86q0 -45 -6 -88q-43 -6 -86 -6q-45 0 -88 6q-6 43 -6 86z" />
<glyph unicode=";" horiz-adv-x="454" d="M61 -231l111 405q16 2 34.5 3t35.5 1q16 0 34.5 -1t36.5 -3l-110 -405q-20 -4 -38 -5h-34h-36q-18 1 -34 5zM152 963q0 45 6 88q43 6 86 6q45 0 88 -6q6 -43 6 -86q0 -45 -6 -88q-43 -6 -86 -6q-45 0 -88 6q-6 43 -6 86z" />
<glyph unicode="&#x3c;" d="M170 715q0 47 8 73l856 355q6 -35 6 -68q0 -51 -6 -76l-710 -286l710 -279q8 -31 8 -69q0 -35 -2 -53.5t-6 -28.5l-856 354q-4 14 -6 31.5t-2 46.5z" />
<glyph unicode="=" d="M174 526q0 16 1 38.5t3 33.5h873q2 -10 3 -33t1 -39t-1 -36.5t-3 -31.5h-873q-2 10 -3 31t-1 37zM174 899q0 16 1 38.5t3 33.5h873q2 -10 3 -33t1 -39t-1 -36.5t-3 -31.5h-873q-2 10 -3 31t-1 37z" />
<glyph unicode="&#x3e;" d="M170 1061q0 35 2 53.5t6 28.5l856 -355q4 -14 6 -31.5t2 -45.5q0 -47 -8 -74l-856 -354q-6 33 -6 67q0 51 6 76l711 287l-711 278q-8 31 -8 70z" />
<glyph unicode="?" horiz-adv-x="993" d="M88 1427q90 29 163 40.5t163 11.5q240 0 362.5 -108.5t122.5 -295.5q0 -104 -45 -181t-106.5 -127t-124 -79t-97.5 -39v-229q-18 -2 -36.5 -3t-34.5 -1t-35 1t-33 3v317l70 23q51 16 103 41.5t94 62.5t68 88.5t26 118.5q0 139 -98.5 210t-256.5 71q-96 0 -153.5 -14.5 t-112.5 -32.5q-12 29 -20.5 57t-18.5 65zM367 90q0 45 6 88q43 6 86 6q45 0 88 -6q6 -43 6 -86q0 -45 -6 -88q-43 -6 -86 -6q-45 0 -88 6q-6 43 -6 86z" />
<glyph unicode="@" horiz-adv-x="2091" d="M133 432q0 123 28.5 250t87 244.5t146.5 221t209 180.5t274.5 122t342.5 45q156 0 291 -42t234 -127t155.5 -214t56.5 -303q0 -127 -36 -250t-103.5 -220t-167 -157.5t-228.5 -60.5q-137 0 -223 55q-59 -39 -137 -56.5t-156 -17.5q-76 0 -135 25t-99 68t-60.5 100 t-20.5 123q0 141 47 260t128 205t189.5 134t229.5 48q74 0 137 -11.5t131 -29.5l-158 -758q29 -23 67 -29t71 -6q92 0 163.5 53.5t121.5 137.5t76 186.5t26 200.5q0 276 -161 419.5t-454 143.5q-221 0 -394 -80t-292 -211t-180 -299t-61 -342q0 -170 48 -291.5t132 -199.5 t197.5 -115t244.5 -37q94 0 181 16.5t159 41.5q6 -16 15.5 -42t15.5 -67q-74 -31 -173.5 -48t-232.5 -17q-154 0 -287 46t-232 139t-156.5 234.5t-57.5 331.5zM743 449q0 -115 50.5 -169.5t162.5 -54.5q49 0 95.5 11.5t105.5 42.5l133 649q-51 14 -106 14q-92 0 -172 -37 t-139.5 -102.5t-94.5 -156.5t-35 -197z" />
<glyph unicode="A" horiz-adv-x="1232" d="M41 0l491 1473q14 2 39 3t45 1q23 0 46.5 -1t37.5 -3l492 -1473q-12 -2 -34.5 -3t-43.5 -1q-18 0 -38.5 1t-35.5 3l-122 375h-607l-116 -375q-16 -2 -38 -3t-40 -1q-20 0 -42 1t-34 3zM352 506h525l-265 819z" />
<glyph unicode="B" horiz-adv-x="1202" d="M207 0v1473q20 2 58 6t81 8t87 6t79 2q242 0 371 -93t129 -290q0 -63 -19.5 -115.5t-52.5 -94.5t-77 -70.5t-91 -43.5q63 -8 122.5 -33.5t106 -71.5t74 -114.5t27.5 -165.5q0 -111 -44 -190.5t-123 -132.5t-186.5 -79t-234.5 -26q-33 0 -74 2.5t-83 5.5t-81.5 8t-68.5 9z M348 115q29 -4 77 -7.5t101 -3.5q80 0 157 14.5t136.5 49.5t95 92t35.5 143t-30.5 144.5t-84 95.5t-125 53.5t-153.5 16.5h-209v-598zM348 846h195q166 0 242.5 73.5t76.5 192.5q0 111 -81 185.5t-255 74.5q-53 0 -101 -4t-77 -8v-514z" />
<glyph unicode="C" horiz-adv-x="1265" d="M131 721q0 184 48 328.5t135 244t211 151.5t278 52q129 0 215 -18.5t125 -30.5q-4 -37 -11.5 -61.5t-21.5 -59.5q-27 8 -54.5 16.5t-62.5 14.5t-81 10t-107 4q-121 0 -217 -44t-164 -128t-104.5 -205t-36.5 -274q0 -158 41 -274.5t113.5 -193.5t170 -114t209.5 -37 q96 0 175 18.5t132 47.5q16 -31 28.5 -59.5t18.5 -59.5q-70 -35 -166 -54.5t-202 -19.5q-150 0 -273.5 49.5t-212 143.5t-137.5 233.5t-49 319.5z" />
<glyph unicode="D" horiz-adv-x="1431" d="M207 0v1473q29 4 70.5 8t89 7t94.5 5t86 2q193 0 335 -52t235 -149.5t138 -238t45 -316.5q0 -764 -753 -764q-43 0 -92 2.5t-95.5 5.5t-86 8t-66.5 9zM348 123q37 -4 87 -8t104 -4q141 0 254.5 30.5t193.5 104t123 195.5t43 304q0 317 -163 466t-451 149q-47 0 -101.5 -2 t-89.5 -8v-1227z" />
<glyph unicode="E" horiz-adv-x="1105" d="M207 0v1473h788q2 -12 3 -30t1 -34q0 -14 -1 -33.5t-3 -32.5h-647v-497h520q2 -12 3 -29.5t1 -34.5q0 -14 -1 -33.5t-3 -31.5h-520v-588h666q2 -12 3 -29.5t1 -33.5q0 -14 -1 -34t-3 -32h-807z" />
<glyph unicode="F" horiz-adv-x="1028" d="M207 0v1473h723q2 -12 3 -30t1 -34q0 -14 -1 -33.5t-3 -32.5h-582v-497h504q2 -12 3 -29.5t1 -34.5q0 -14 -1 -33.5t-3 -31.5h-504v-717q-14 -2 -32.5 -3t-36.5 -1q-20 0 -40 1t-32 3z" />
<glyph unicode="G" horiz-adv-x="1413" d="M133 721q0 184 51.5 328.5t142.5 244t215 151.5t269 52q129 0 215 -17.5t139 -33.5q-4 -37 -11 -63.5t-21 -61.5q-45 16 -121 33.5t-193 17.5t-215 -44t-168.5 -128t-110.5 -205t-40 -274q0 -158 43 -273.5t116.5 -191.5t173 -113t211.5 -37q92 0 155 7.5t108 23.5v623 q14 2 34.5 3t36.5 1q18 0 37 -1t33 -3v-717q-35 -18 -83 -30.5t-102.5 -20.5t-111.5 -12.5t-113 -4.5q-147 0 -274 47.5t-219 141.5t-144.5 233.5t-52.5 323.5z" />
<glyph unicode="H" horiz-adv-x="1421" d="M207 0v1473q14 2 34.5 3t37.5 1q18 0 36.5 -1t32.5 -3v-627h725v627q14 2 32.5 3t37.5 1q16 0 36.5 -1t34.5 -3v-1473q-12 -2 -31.5 -3t-39.5 -1q-18 0 -37 1t-33 3v717h-725v-717q-14 -2 -32.5 -3t-36.5 -1q-20 0 -40 1t-32 3z" />
<glyph unicode="I" horiz-adv-x="555" d="M207 0v1473q14 2 34.5 3t37.5 1q18 0 36.5 -1t32.5 -3v-1473q-14 -2 -32.5 -3t-36.5 -1q-20 0 -40 1t-32 3z" />
<glyph unicode="J" horiz-adv-x="788" d="M61 2q6 57 35 125q27 -8 62 -15.5t75 -7.5q37 0 75 7.5t71 29t53.5 62.5t20.5 108v1037h-271q-2 10 -3 27.5t-1 33.5q0 14 1 33.5t3 30.5h410v-1180q0 -90 -28.5 -151.5t-77 -98.5t-110 -52.5t-126.5 -15.5q-61 0 -107.5 8.5t-81.5 18.5z" />
<glyph unicode="K" horiz-adv-x="1214" d="M207 0v1473q14 2 34.5 3t37.5 1q18 0 36.5 -1t32.5 -3v-1473q-14 -2 -32.5 -3t-36.5 -1q-20 0 -40 1t-32 3zM444 754l519 719q16 2 33.5 3t33.5 1q23 0 43.5 -1t42.5 -3l-504 -705l582 -768q-23 -2 -46.5 -3t-45.5 -1q-18 0 -38 1t-38 3z" />
<glyph unicode="L" horiz-adv-x="1017" d="M207 0v1473q12 2 31.5 3t40.5 1q18 0 36.5 -1t32.5 -3v-1344h629q2 -12 3 -31.5t1 -34.5q0 -16 -1 -33.5t-3 -29.5h-770z" />
<glyph unicode="M" horiz-adv-x="1669" d="M176 0l72 1473q12 2 38.5 3t49.5 1t49.5 -1t40.5 -3l412 -981l407 981q12 2 40 3t48 1t47 -1t41 -3l72 -1473q-14 -2 -32.5 -3t-37.5 -1q-20 0 -39.5 1t-31.5 3l-56 1253l-405 -948q-14 -4 -29 -4h-28h-28q-13 0 -28 4l-401 950l-60 -1255q-14 -2 -32.5 -3t-36.5 -1 q-20 0 -40 1t-32 3z" />
<glyph unicode="N" horiz-adv-x="1409" d="M207 0v1473q14 2 37.5 3t40.5 1q16 0 38.5 -1t36.5 -3l705 -1233v1233q14 2 31.5 3t36.5 1q16 0 35.5 -1t33.5 -3v-1473q-12 -2 -35.5 -3t-42.5 -1q-16 0 -38.5 1t-36.5 3l-705 1223v-1223q-14 -2 -31.5 -3t-36.5 -1q-20 0 -38.5 1t-30.5 3z" />
<glyph unicode="O" horiz-adv-x="1478" d="M131 737q0 166 38 305.5t112.5 240.5t189.5 157.5t268 56.5q154 0 268.5 -56.5t189.5 -157.5t113 -240.5t38 -305.5t-38 -306t-113 -241.5t-189.5 -158t-268.5 -56.5t-268.5 56.5t-189 158t-112.5 241.5t-38 306zM279 737q0 -139 27.5 -255.5t83.5 -200.5t143.5 -130.5 t205.5 -46.5q119 0 205 46.5t143.5 130.5t85 200.5t27.5 255.5t-27.5 256t-85 200t-143.5 129t-205 46t-206 -46t-143 -129t-83.5 -200t-27.5 -256z" />
<glyph unicode="P" horiz-adv-x="1134" d="M207 0v1473q20 2 57 7t81 8t90 6t83 3q121 0 219.5 -24.5t169 -78t109.5 -138.5t39 -205q0 -129 -44 -221.5t-119 -149.5t-174.5 -84t-207.5 -27q-47 0 -82 2t-80 7v-578q-14 -2 -32.5 -3t-36.5 -1q-20 0 -40 1t-32 3zM348 709q20 -2 36 -3l31 -3q15 -1 34.5 -2t50.5 -1 q74 0 145.5 12.5t130 50.5t94 106.5t35.5 181.5q0 90 -27.5 150.5t-78.5 97t-125 53t-164 16.5q-53 0 -94 -3t-68 -7v-649z" />
<glyph unicode="Q" horiz-adv-x="1478" d="M131 737q0 166 38 305.5t112.5 240.5t189.5 157.5t268 56.5q154 0 268.5 -56.5t189.5 -157.5t113 -240.5t38 -305.5t-38 -306t-113 -241.5t-189.5 -158t-268.5 -56.5t-268.5 56.5t-189 158t-112.5 241.5t-38 306zM279 737q0 -139 27.5 -255.5t83.5 -200.5t143.5 -130.5 t205.5 -46.5q119 0 205 46.5t143.5 130.5t85 200.5t27.5 255.5t-27.5 256t-85 200t-143.5 129t-205 46t-206 -46t-143 -129t-83.5 -200t-27.5 -256zM885 -186q0 35 7 63.5t19 59.5l443 -84q0 -35 -5.5 -65t-19.5 -62z" />
<glyph unicode="R" horiz-adv-x="1202" d="M207 0v1479l79 7q34 3 65.5 6t66.5 4t82 1q98 0 193 -20.5t171 -70.5t122 -135t46 -214q0 -80 -28.5 -145.5t-74.5 -118t-106.5 -90t-124.5 -62.5l-16 -6l469 -635q-20 -4 -41 -4h-41h-40q-19 0 -40 4l-516 682v8l45 12q70 18 135.5 48t115.5 72t81 99.5t31 135.5 q0 160 -98.5 239.5t-266.5 79.5q-43 0 -80 -2t-88 -8v-1366q-14 -2 -34.5 -3t-37.5 -1q-18 0 -36.5 1t-32.5 3z" />
<glyph unicode="S" horiz-adv-x="1107" d="M115 33q4 31 14 66.5t23 64.5q29 -8 59.5 -18.5t68 -18.5t85 -14.5t108.5 -6.5q98 0 169 24t117 63.5t68.5 94t22.5 118.5q0 61 -15.5 105t-53.5 81t-104.5 70.5t-166.5 72.5q-72 27 -136.5 57.5t-113.5 74.5t-77.5 105.5t-28.5 153.5q0 166 119.5 268.5t349.5 102.5 q45 0 91 -4t86 -10t73.5 -14.5t54.5 -14.5q-4 -31 -11.5 -62.5t-17.5 -60.5q-49 16 -126 29.5t-152 13.5q-170 0 -244 -69.5t-74 -176.5q0 -55 22.5 -96t62.5 -71.5t95.5 -56t118.5 -50.5q86 -35 161 -72t128 -86t84 -115.5t31 -160.5q0 -106 -38 -189.5t-107.5 -139.5 t-170 -86t-225.5 -30q-121 0 -200.5 17.5t-149.5 40.5z" />
<glyph unicode="T" horiz-adv-x="1013" d="M37 1409q0 14 1 32.5t3 31.5h932q2 -12 3 -29t1 -33q0 -14 -1 -33.5t-3 -31.5h-395v-1346q-14 -2 -33 -3t-37 -1q-20 0 -39.5 1t-32.5 3v1346h-395q-2 12 -3 29.5t-1 33.5z" />
<glyph unicode="U" horiz-adv-x="1384" d="M190 565v908q14 2 35 3t37 1q18 0 36.5 -1t33.5 -3v-889q0 -129 21.5 -218.5t65.5 -146.5t111.5 -82.5t161.5 -25.5q186 0 273.5 108.5t87.5 364.5v889q14 2 32.5 3t36.5 1q16 0 37 -1t35 -3v-908q0 -295 -121 -442.5t-381 -147.5t-381 147.5t-121 442.5z" />
<glyph unicode="V" horiz-adv-x="1263" d="M63 1473q12 2 36 3t44 1q18 0 43 -1t39 -3l412 -1334l405 1334q16 2 38 3t40 1q20 0 44 -1t36 -3l-483 -1473q-14 -2 -41 -3t-45 -1q-20 0 -45 1t-39 3z" />
<glyph unicode="W" horiz-adv-x="1886" d="M74 1473q12 2 36.5 3t45.5 1q18 0 42.5 -1t39.5 -3l284 -1315l338 1315q12 2 40 3t46 1q16 0 45 -1t43 -3l336 -1315l289 1315q16 2 35.5 3t38.5 1q20 0 43.5 -1t35.5 -3l-356 -1473q-14 -2 -43 -3t-47 -1q-20 0 -50 1t-44 3l-330 1282l-328 -1282q-14 -2 -42.5 -3 t-47.5 -1q-20 0 -50 1t-44 3z" />
<glyph unicode="X" horiz-adv-x="1210" d="M51 0l395 772l-342 701q23 2 39.5 3t38.5 1q16 0 38 -1t38 -3l338 -697l-393 -776q-16 -4 -37 -4h-37q-18 0 -39 1t-39 3zM612 776l340 697q16 2 37 3t37 1q23 0 38 -1t38 -3l-342 -689l399 -784q-18 -2 -39.5 -3t-40.5 -1q-16 0 -34.5 1t-36.5 3z" />
<glyph unicode="Y" horiz-adv-x="1175" d="M49 1473q12 2 34.5 3t43.5 1q18 0 44 -1t40 -3l385 -779l379 779q16 2 35.5 3t38.5 1q20 0 42.5 -1t34.5 -3l-462 -926v-547q-14 -2 -33 -3t-37 -1q-20 0 -39.5 1t-32.5 3v547z" />
<glyph unicode="Z" horiz-adv-x="1136" d="M29 16l833 1327h-715q-2 10 -3 29t-1 35t1 35.5t3 30.5h936l11 -15l-840 -1329h772q2 -10 3 -30.5t1 -37.5q0 -16 -1 -33.5t-3 -27.5h-987z" />
<glyph unicode="[" horiz-adv-x="616" d="M102 -344v1876h406q2 -14 3 -28.5t1 -30.5t-1 -32t-3 -26h-268v-1644h268q2 -12 3 -25.5t1 -30.5q0 -16 -1 -31.5t-3 -27.5h-406z" />
<glyph unicode="\" horiz-adv-x="841" d="M94 1473q37 6 68 6q33 0 63 -6l498 -1473q-31 -6 -61 -6q-37 0 -68 6z" />
<glyph unicode="]" horiz-adv-x="616" d="M104 -255q0 13 5 26h268v1644h-268q-4 10 -5 26v32v30q0 14 5 29h405v-1876h-405q-4 12 -5 28v31v30z" />
<glyph unicode="^" horiz-adv-x="1128" d="M145 762l336 711q18 4 40 5t38 1q43 0 86 -6l336 -711h-135l-285 608l-280 -608h-136z" />
<glyph unicode="_" horiz-adv-x="1036" d="M2 -104q0 31 8 55h1020q6 -29 6 -57q0 -29 -6 -56h-1020q-8 25 -8 58z" />
<glyph unicode="`" horiz-adv-x="1024" d="M297 1481q23 2 47.5 3t48.5 1h46q24 0 46 -4l240 -267q-37 -6 -68 -6q-47 0 -84 6z" />
<glyph unicode="a" horiz-adv-x="1050" d="M113 297q0 82 31.5 146.5t88 108.5t135 66.5t173.5 22.5q74 0 127 -5t88 -9v63q0 135 -63.5 197.5t-188.5 62.5q-82 0 -149.5 -11t-121.5 -28q-10 18 -17 53t-7 66q53 16 131 27.5t160 11.5q199 0 295 -87t96 -273v-691q-72 -14 -174.5 -28.5t-194.5 -14.5 q-190 0 -299.5 76t-109.5 246zM248 301q0 -68 25.5 -108.5t66.5 -62t90 -29t98 -7.5q63 0 118.5 6t109.5 17v391q-35 4 -87.5 9t-99.5 5q-154 0 -237.5 -57.5t-83.5 -163.5z" />
<glyph unicode="b" horiz-adv-x="1208" d="M180 31v1474q12 2 34 3t34 1q10 0 32.5 -1t34.5 -3v-606q43 66 124 118t210 52q96 0 176 -29.5t136.5 -93t88 -160t31.5 -231.5q0 -272 -149.5 -426t-431.5 -154q-92 0 -178.5 18t-141.5 38zM315 125q47 -16 99.5 -23.5t111.5 -7.5q82 0 157 26.5t131 82t90 140.5t34 204 q0 186 -70.5 292.5t-228.5 106.5q-49 0 -106.5 -16.5t-105.5 -55t-80 -103t-32 -163.5v-483z" />
<glyph unicode="c" horiz-adv-x="983" d="M121 522q0 117 32.5 216.5t96 173t159 115.5t220.5 42q78 0 148.5 -11t111.5 -26q0 -27 -7.5 -61.5t-15.5 -55.5q-41 14 -103.5 24.5t-133.5 10.5q-92 0 -161 -31.5t-115 -89t-68.5 -135.5t-22.5 -172q0 -221 105.5 -324.5t285.5 -103.5q61 0 117.5 10.5t101.5 26.5 q10 -20 19.5 -55t13.5 -58q-51 -18 -116.5 -30.5t-145.5 -12.5q-256 0 -389 140.5t-133 406.5z" />
<glyph unicode="d" horiz-adv-x="1198" d="M127 500q0 135 37 240.5t104.5 178t162.5 111.5t210 39q68 0 134.5 -11t107.5 -26v473q12 2 34.5 3t32.5 1q12 0 34 -1t34 -3v-1480q-63 -20 -157.5 -35t-196.5 -15q-113 0 -211.5 27t-170 88.5t-113.5 162t-42 247.5zM268 504q0 -213 101.5 -310.5t287.5 -97.5 q68 0 129.5 7.5t96.5 17.5v784q-41 16 -104.5 29.5t-131.5 13.5q-96 0 -166.5 -32.5t-118 -91t-71 -140.5t-23.5 -180z" />
<glyph unicode="e" horiz-adv-x="1132" d="M123 516q0 115 27.5 215t84 176t144.5 119t211 43q102 0 182 -35t134.5 -97.5t82 -149.5t27.5 -189q0 -18 -1 -47t-3 -49h-746q0 -209 96.5 -307.5t288.5 -98.5q78 0 144.5 13.5t130.5 35.5q10 -23 16 -55.5t8 -58.5q-59 -27 -139 -41.5t-174 -14.5q-135 0 -232.5 40 t-160 112t-92 171t-29.5 218zM270 614h611q0 63 -16.5 125t-51.5 108t-90 74.5t-133 28.5q-143 0 -223.5 -88t-96.5 -248z" />
<glyph unicode="f" horiz-adv-x="716" d="M72 985q0 16 1 32.5t3 26.5h178v93q0 193 85 289t269 96q43 0 79 -5.5t61 -11.5q-4 -39 -9.5 -63.5t-13.5 -52.5q-18 4 -49 9t-66 5q-53 0 -94 -11.5t-68.5 -41t-43 -83t-15.5 -137.5v-86h287q2 -10 3 -26.5t1 -32.5t-1 -30.5t-3 -24.5h-287v-930q-12 -2 -33.5 -3 t-33.5 -1q-10 0 -33 1t-35 3v930h-178q-2 10 -3 24.5t-1 30.5z" />
<glyph unicode="g" horiz-adv-x="1097" d="M82 -238q0 78 45 150t117 106q-39 25 -65.5 63t-26.5 93q0 80 37.5 133t101.5 96q-72 45 -115 121t-43 181q0 76 25.5 142t77 115.5t126 78t173.5 28.5q84 0 149.5 -21.5t114.5 -56.5q20 8 51 18.5t67.5 17.5t75.5 12t76 5q8 -31 8 -67q0 -39 -8 -70h-195 q29 -45 44.5 -95t15.5 -107q0 -88 -31 -156t-85 -114t-127 -70.5t-156 -24.5q-88 0 -154 22q-57 -37 -81 -70.5t-24 -76.5q0 -20 6.5 -38.5t26 -34t54 -24.5t90.5 -9l266 -5q180 -4 257 -74.5t77 -187.5q0 -80 -41 -144.5t-115 -110.5t-175 -71.5t-220 -25.5 q-92 0 -169 14.5t-133.5 46t-87 83.5t-30.5 128zM215 -221q0 -49 22.5 -82t62.5 -51.5t93 -25.5t113 -7q190 0 296.5 64.5t106.5 154.5q0 78 -53 110.5t-174 34.5l-254 5h-7q-92 0 -148 -55q-58 -56 -58 -148zM276 705q0 -106 62.5 -179t196.5 -73q133 0 196.5 72.5 t63.5 179.5q0 106 -63.5 178.5t-196.5 72.5t-196 -72.5t-63 -178.5z" />
<glyph unicode="h" horiz-adv-x="1171" d="M180 0v1505q12 2 34 3t34 1q10 0 32.5 -1t34.5 -3v-647q20 37 53 75t76 68.5t97.5 49t120.5 18.5q180 0 265 -107.5t85 -302.5v-659q-12 -2 -34 -3t-34 -1q-10 0 -32.5 1t-34.5 3v618q0 174 -57.5 250t-166.5 76q-72 0 -134 -26.5t-107 -79t-71 -131t-26 -181.5v-526 q-12 -2 -33.5 -3t-33.5 -1q-10 0 -33 1t-35 3z" />
<glyph unicode="i" horiz-adv-x="559" d="M109 985q0 16 1 32.5t3 26.5h266v-1044q-12 -2 -33.5 -3t-34.5 -1q-10 0 -32.5 1t-34.5 3v930h-131q-2 10 -3 24.5t-1 30.5zM172 1391q0 16 1 40.5t3 41.5q18 2 45 3t45 1q16 0 41 -1t41 -3q2 -16 3 -41t1 -41q0 -18 -1 -45t-3 -46q-16 -2 -40.5 -3t-41.5 -1 q-18 0 -44.5 1t-45.5 3q-2 18 -3 45.5t-1 45.5z" />
<glyph unicode="j" horiz-adv-x="569" d="M-68 -346q4 23 12.5 56.5t18.5 53.5q47 -20 119 -20q20 0 50 2t56.5 16.5t46 45t19.5 90.5v1032h-131q-2 10 -3 24.5t-1 30.5t1 32.5t3 26.5h266v-1132q0 -86 -24.5 -141.5t-64.5 -87t-91 -45t-103 -13.5q-63 0 -104 8.5t-70 20.5zM182 1391q0 16 1 40.5t3 41.5 q18 2 45 3t45 1q16 0 41 -1t41 -3q2 -16 3 -41t1 -41q0 -18 -1 -45t-3 -46q-16 -2 -40.5 -3t-41.5 -1q-18 0 -44.5 1t-45.5 3q-2 18 -3 45.5t-1 45.5z" />
<glyph unicode="k" horiz-adv-x="1028" d="M180 0v1505q12 2 34 3t34 1q10 0 32.5 -1t34.5 -3v-1505q-12 -2 -34.5 -3t-32.5 -1q-12 0 -34 1t-34 3zM401 539l375 505q33 6 72 7q45 0 86 -7l-373 -491l440 -553q-37 -6 -73 -6q-45 0 -88 6z" />
<glyph unicode="l" horiz-adv-x="571" d="M180 211v1294q12 2 34 3t34 1q10 0 32.5 -1t34.5 -3v-1263q0 -53 12.5 -83t31 -43.5t41 -16.5t40.5 -3q23 0 47.5 3t40.5 7q10 -25 14.5 -53t6.5 -53q-29 -10 -64.5 -14t-66.5 -4q-43 0 -86 9t-77 34.5t-54.5 69.5t-20.5 116z" />
<glyph unicode="m" horiz-adv-x="1712" d="M180 0v1044q16 2 31.5 3.5t30.5 1.5q16 0 30.5 -1t30.5 -4q4 -37 6 -88t2 -92q18 39 47 76t68 65.5t89 46t114 17.5q59 0 102 -14.5t75 -40t53.5 -60t39.5 -77.5q23 33 51.5 67.5t65.5 62t85 45t107 17.5q182 0 263 -104.5t81 -298.5v-666q-12 -2 -33.5 -3t-33.5 -1 q-10 0 -32.5 1t-35.5 3v618q0 166 -54 246t-163 80q-66 0 -115 -26.5t-81.5 -71.5t-50 -105.5t-17.5 -128.5v-612q-12 -2 -33.5 -3t-34.5 -1q-10 0 -32.5 1t-34.5 3v645q0 158 -50.5 233.5t-144.5 75.5q-63 0 -116.5 -31.5t-92.5 -89t-60.5 -136.5t-21.5 -173v-524 q-12 -2 -33.5 -3t-33.5 -1q-10 0 -33 1t-35 3z" />
<glyph unicode="n" horiz-adv-x="1171" d="M180 0v1044q16 2 31.5 3.5t30.5 1.5q16 0 30.5 -1t30.5 -4q4 -37 6 -92t2 -96q20 37 53 75t77 68.5t101.5 50t125.5 19.5q180 0 262 -107.5t82 -302.5v-659q-12 -2 -34 -3t-34 -1q-10 0 -32.5 1t-34.5 3v618q0 174 -54.5 250t-163.5 76q-72 0 -135 -28.5t-109 -83 t-73 -134.5t-27 -182v-516q-12 -2 -33.5 -3t-33.5 -1q-10 0 -33 1t-35 3z" />
<glyph unicode="o" horiz-adv-x="1175" d="M121 522q0 115 28.5 215.5t87 174t146.5 115.5t205 42t204 -42t145 -115.5t88 -174t30 -215.5t-30 -215t-88 -174t-145 -116t-204 -42t-205 42t-146.5 116t-87 174t-28.5 215zM262 522q0 -199 81 -313.5t245 -114.5t244.5 115t80.5 313q0 199 -80.5 313.5t-244.5 114.5 t-245 -114.5t-81 -313.5z" />
<glyph unicode="p" horiz-adv-x="1206" d="M180 -483v1527q12 2 30.5 3.5t31.5 1.5q12 0 30.5 -1t30.5 -4l12 -143q43 66 124 117t210 51q96 0 176 -29.5t136.5 -93t88 -160t31.5 -231.5t-36.5 -242.5t-107.5 -182.5t-174.5 -115t-236.5 -40q-49 0 -106.5 8.5t-104.5 24.5v-491q-12 -2 -34.5 -3t-32.5 -1 q-12 0 -34 1t-34 3zM315 133q47 -18 97.5 -27.5t134.5 -9.5q80 0 151.5 25.5t125 81t84 140.5t30.5 204q0 188 -70.5 294.5t-228.5 106.5q-49 0 -106.5 -16.5t-105.5 -56t-80 -104t-32 -163.5v-475z" />
<glyph unicode="q" horiz-adv-x="1196" d="M125 492q0 135 40 241.5t111.5 181t173 114.5t224.5 40q57 0 103 -3t86 -9t77 -14.5t76 -20.5v-1505q-12 -2 -35 -3t-33 -1q-12 0 -33.5 1t-33.5 3v489q-49 -14 -106.5 -22.5t-123.5 -8.5q-109 0 -205 25t-167.5 85t-112.5 160t-41 247zM266 477q0 -100 28 -172t79 -119 t119.5 -69.5t152.5 -22.5q68 0 131.5 10.5t104.5 24.5v801q-61 12 -101.5 16t-97.5 4q-104 0 -183 -34.5t-130.5 -98t-77 -150t-25.5 -190.5z" />
<glyph unicode="r" horiz-adv-x="716" d="M180 0v1044q16 2 31.5 3.5t30.5 1.5q16 0 30.5 -1t30.5 -4q4 -37 6 -87t2 -91q41 76 115 128.5t195 52.5h21q11 0 26 -3q6 -35 6 -65q0 -33 -6 -64q-16 2 -26 3h-19q-139 0 -223.5 -88.5t-84.5 -292.5v-537q-12 -2 -33.5 -3t-33.5 -1q-10 0 -33 1t-35 3z" />
<glyph unicode="s" horiz-adv-x="925" d="M113 20q12 61 39 123q45 -18 116.5 -31.5t137.5 -13.5q123 0 194.5 54.5t71.5 134.5q0 55 -21.5 91t-57.5 60.5t-81 40t-92 31.5q-51 16 -101.5 36.5t-89.5 52.5t-62.5 77t-23.5 112q0 125 91.5 203t281.5 78q80 0 154.5 -14.5t115.5 -30.5q-10 -59 -28 -117 q-43 14 -109.5 28.5t-138.5 14.5q-125 0 -177 -44t-52 -115q0 -39 17 -67t47 -47.5t68 -33.5t81 -27q55 -18 111.5 -39.5t102.5 -56.5t75.5 -88t29.5 -133q0 -74 -29.5 -134.5t-83 -102.5t-127 -64.5t-161.5 -22.5q-98 0 -175 12.5t-124 32.5z" />
<glyph unicode="t" horiz-adv-x="694" d="M45 989q0 16 1 30.5t3 24.5h178v197l127 125h8v-322h283q2 -10 3 -24t1 -31q0 -16 -1 -32.5t-3 -26.5h-283v-680q0 -51 13.5 -81t35 -46.5t49 -21.5t56.5 -5q72 0 125 19q14 -53 21 -115q-74 -23 -173 -23q-117 0 -189.5 62.5t-72.5 204.5v686h-178q-2 10 -3 26.5 t-1 32.5z" />
<glyph unicode="u" horiz-adv-x="1177" d="M172 449v595q12 2 34.5 3.5t33.5 1.5q12 0 33.5 -1t33.5 -4v-587q0 -111 22.5 -181.5t66.5 -110.5t107.5 -55.5t143.5 -15.5q68 0 121 7.5t94 19.5v923q12 2 35 3.5t33 1.5q12 0 33.5 -1t33.5 -4v-1017q-76 -20 -169 -36t-191 -16q-96 0 -181 18.5t-147.5 71t-99.5 145 t-37 239.5z" />
<glyph unicode="v" horiz-adv-x="1067" d="M53 1044q12 2 35 3.5t43 1.5q16 0 41 -1t37 -4l330 -903l335 903q12 2 33 3.5t37 1.5t36.5 -1t33.5 -4l-416 -1044q-31 -6 -63 -6q-33 0 -66 6z" />
<glyph unicode="w" horiz-adv-x="1540" d="M68 1044q12 2 31.5 3.5t39.5 1.5q16 0 40 -1t36 -4l231 -888l259 888q16 2 35.5 3.5t41.5 1.5h34q17 0 34 -5l258 -876l231 876q12 2 29.5 3.5t34.5 1.5q16 0 36.5 -1t33.5 -4l-302 -1044q-37 -6 -71 -6q-39 0 -72 6l-252 864l-264 -864q-37 -6 -72 -6q-39 0 -71 6z" />
<glyph unicode="x" horiz-adv-x="1003" d="M41 0l311 545l-274 499q37 6 72 7q39 0 81 -7l263 -499l-304 -545q-35 -6 -69 -6q-41 0 -80 6zM510 545l262 499q43 6 80 7q33 0 70 -7l-267 -489l308 -555q-41 -6 -80 -6q-37 0 -70 6z" />
<glyph unicode="y" horiz-adv-x="1054" d="M33 1044q12 2 34.5 3.5t43.5 1.5q16 0 40.5 -1t36.5 -4l347 -1015l339 1015q12 2 33 3.5t37 1.5t36.5 -1t33.5 -4l-459 -1353q-37 -113 -104.5 -158t-159.5 -45q-43 0 -87 8t-73 17q0 63 31 114q16 -6 49 -13t74 -7q59 0 95 28.5t62 106.5l84 254h-39q-18 0 -41.5 1 t-35.5 3z" />
<glyph unicode="z" horiz-adv-x="952" d="M63 33l609 897h-547q-2 10 -3 24.5t-1 30.5t1 32.5t3 26.5h754l8 -26l-608 -903h575q2 -10 3 -26.5t1 -33.5q0 -16 -1 -30.5t-3 -24.5h-784z" />
<glyph unicode="{" horiz-adv-x="811" d="M102 592v8q59 33 101.5 66.5t68 76.5t38 97.5t12.5 128.5v157q0 209 85 309.5t295 100.5q2 -14 3.5 -28.5t1.5 -30.5t-1 -30.5t-4 -25.5q-82 0 -131 -19.5t-74.5 -62.5t-33.5 -109.5t-8 -158.5v-22q0 -104 -8.5 -177t-28 -124.5t-53 -87t-84.5 -64.5q51 -29 84.5 -64.5 t53 -87t28 -124t8.5 -177.5v-22q0 -92 8 -158.5t33.5 -109.5t75 -62.5t130.5 -19.5q2 -12 3.5 -25.5t1.5 -30.5q0 -16 -1 -31.5t-4 -27.5q-211 0 -295.5 100.5t-84.5 309.5v157q0 74 -12.5 128.5t-38 97.5t-68 76.5t-101.5 66.5z" />
<glyph unicode="|" horiz-adv-x="669" d="M266 -344v1933q14 2 33.5 3t36.5 1q18 0 35.5 -1t31.5 -3v-1933q-14 -2 -31.5 -3t-35.5 -1q-20 0 -39 1t-31 3z" />
<glyph unicode="}" horiz-adv-x="811" d="M104 -285q0 16 1 29.5t4 26.5q82 0 130 19.5t74.5 62.5t34.5 109.5t8 158.5v22q0 104 8.5 177t28 124.5t53 87t84.5 64.5q-51 29 -84.5 64.5t-53 87t-28 124t-8.5 177.5v22q0 92 -8 158.5t-34.5 109.5t-75 62.5t-129.5 19.5q-2 10 -3.5 24.5t-1.5 31.5q0 16 1 30.5 t4 28.5q211 0 295.5 -100.5t84.5 -309.5v-157q0 -74 11.5 -128.5t38 -97.5t68.5 -76.5t102 -66.5v-8q-59 -33 -101.5 -66.5t-69 -76.5t-38 -97.5t-11.5 -128.5v-157q0 -209 -85 -309.5t-295 -100.5q-2 12 -3.5 27.5t-1.5 31.5z" />
<glyph unicode="~" horiz-adv-x="978" d="M49 815q20 25 51 46.5t67 39t74 26.5t72 9q47 0 93.5 -13.5t92.5 -28.5t92 -27.5t93 -12.5q41 0 85 16.5t93 63.5q27 -25 42.5 -52.5t25.5 -56.5q-51 -45 -108.5 -71.5t-135.5 -26.5q-45 0 -92 12.5t-93 27.5t-92.5 28.5t-89.5 13.5q-49 0 -99 -19.5t-99 -66.5 q-47 33 -72 92z" />
<glyph unicode="&#xa1;" horiz-adv-x="579" d="M197 963q0 45 6 88q43 6 86 6q45 0 88 -6q6 -43 6 -86q0 -45 -6 -88q-43 -6 -86 -7q-45 0 -88 7q-6 43 -6 86zM211 -422l8 1053q16 2 32.5 3t33.5 1q16 0 31.5 -1t31.5 -3l8 -1053q-16 -2 -32.5 -3t-32.5 -1q-20 0 -40 1t-40 3z" />
<glyph unicode="&#xa2;" d="M244 522q0 106 27.5 200.5t83 167.5t138 118t191.5 57v242q57 12 117 0v-240q66 -4 121 -14.5t90 -20.5q0 -27 -7.5 -61.5t-15.5 -55.5q-41 14 -103.5 24.5t-133.5 10.5q-92 0 -161 -31.5t-115 -89t-68.5 -135.5t-22.5 -172q0 -221 105.5 -324.5t285.5 -103.5 q61 0 117.5 10.5t101.5 26.5q10 -20 19.5 -55t13.5 -58q-47 -16 -103.5 -27t-123.5 -16v-217q-29 -8 -58.5 -7t-58.5 7v222q-217 23 -328.5 160.5t-111.5 381.5z" />
<glyph unicode="&#xa3;" d="M221 705q0 16 1 32.5t3 26.5h144q-16 63 -26.5 130t-10.5 138q0 92 25.5 173t78.5 141.5t135 94.5t197 34q104 0 173 -16.5t110 -33.5q-4 -37 -11.5 -60.5t-21.5 -57.5q-57 25 -117.5 35t-130.5 10q-80 0 -135 -24.5t-90 -67.5t-51.5 -103.5t-16.5 -130.5 q0 -68 11.5 -132.5t27.5 -129.5h432q2 -10 3 -26.5t1 -32.5t-1 -31t-3 -25h-405q10 -53 18 -105t8 -106q0 -98 -25.5 -184t-64.5 -125h578q2 -12 3 -31.5t1 -34.5q0 -16 -1 -33.5t-3 -29.5h-811l-6 20l47 48q39 39 65.5 86t43 96t23.5 97t7 91q0 53 -8 105.5t-21 105.5h-172 q-2 10 -3 25t-1 31z" />
<glyph unicode="&#xa4;" d="M94 301l166 164q-39 53 -60.5 118.5t-21.5 137.5q0 74 23.5 140.5t64.5 121.5l-172 172q16 35 42 57.5t52 32.5l170 -172q53 37 118 58.5t136 21.5q72 0 137.5 -21.5t118.5 -60.5l174 174q29 -16 52.5 -38.5t40.5 -47.5l-174 -176q41 -55 64.5 -121.5t23.5 -140.5 q0 -72 -22.5 -137.5t-63.5 -118.5l167 -168q-16 -29 -38.5 -52.5t-44.5 -39.5l-175 170q-53 -41 -119.5 -62.5t-140.5 -21.5t-140 21.5t-120 62.5l-168 -166q-35 16 -57.5 40.5t-32.5 51.5zM311 721q0 -66 22.5 -122t62.5 -98t95.5 -66.5t120.5 -24.5q66 0 121 24.5t96 66.5 t63.5 98t22.5 122t-22.5 123t-63.5 99t-96 66.5t-121 24.5t-121 -24.5t-95 -66.5t-62.5 -99t-22.5 -123z" />
<glyph unicode="&#xa5;" d="M76 1448q12 2 34.5 3t43.5 1q18 0 43.5 -1t40.5 -3l385 -655l378 655q16 2 36 3t38 1q20 0 43 -1t35 -3l-393 -682h338q6 -29 6 -55q0 -33 -6 -64h-408v-207h408q6 -29 6 -55q0 -33 -6 -63h-408v-322q-14 -2 -32.5 -3t-36.5 -1q-20 0 -40 1t-32 3v322h-406q-8 25 -8 57 q0 35 8 61h406v207h-406q-8 25 -8 58q0 35 8 61h334z" />
<glyph unicode="&#xa6;" horiz-adv-x="669" d="M266 336q14 2 33.5 3t36.5 1q18 0 35.5 -1t31.5 -3v-680q-14 -2 -31.5 -3t-35.5 -1q-20 0 -38.5 1t-31.5 3v680zM266 909v680q14 2 33.5 3t36.5 1q18 0 35.5 -1t31.5 -3v-680q-14 -2 -31.5 -3t-35.5 -1q-20 0 -39 1t-31 3z" />
<glyph unicode="&#xa7;" horiz-adv-x="1136" d="M141 29q10 43 16.5 65.5t20.5 50.5q57 -23 131 -40t170 -17q158 0 245 48t87 126q0 37 -17.5 63.5t-47 47t-67.5 35t-79 26.5l-213 70q-76 25 -124 53.5t-74.5 60t-37 68.5t-10.5 78q0 74 32 132t75 108q-29 29 -46.5 72.5t-17.5 101.5q0 63 32 117.5t87 93t133 60 t170 21.5q106 0 178 -16t144 -39q0 -33 -9.5 -59.5t-25.5 -57.5q-57 23 -118.5 40.5t-156.5 17.5q-127 0 -208.5 -42t-81.5 -130q0 -41 14 -69t40 -46t60.5 -31.5t75.5 -25.5l260 -80q92 -29 153.5 -82t61.5 -156q0 -82 -32.5 -143.5t-77.5 -110.5q29 -31 48 -73.5 t19 -100.5q0 -68 -32.5 -122t-94 -93t-148.5 -59.5t-198 -20.5q-98 0 -183 15.5t-153 42.5zM276 778q0 -57 38 -93t116 -64l264 -86q14 -6 29.5 -11.5t40.5 -15.5q12 10 27.5 27.5t30 39t24.5 48t10 57.5q0 53 -42 86t-120 57l-254 82l-45 17q-23 8 -39 16 q-23 -23 -51.5 -65t-28.5 -95z" />
<glyph unicode="&#xa8;" horiz-adv-x="1024" d="M227 1341q0 45 6 89q39 6 82 6t84 -6q6 -43 7 -87q0 -45 -7 -88q-41 -6 -82 -6q-45 0 -84 6q-6 43 -6 86zM618 1341q0 45 7 89q39 6 82 6t84 -6q6 -43 6 -87q0 -45 -6 -88q-41 -6 -82 -6q-45 0 -84 6q-7 43 -7 86z" />
<glyph unicode="&#xa9;" horiz-adv-x="1769" d="M125 735q0 162 55.5 302.5t154.5 241.5t239.5 159.5t310.5 58.5t310 -57.5t239.5 -159.5t155 -241.5t55.5 -303.5t-55.5 -303t-155 -240.5t-239.5 -160t-310 -58.5t-310.5 58.5t-239.5 160t-154.5 240.5t-55.5 303zM264 735q0 -133 43 -249.5t123 -203.5t194.5 -137.5 t260.5 -50.5q145 0 260 50.5t194.5 137.5t122.5 203.5t43 249.5t-43 250t-122.5 204t-194.5 137t-260 50t-260 -50t-195 -137t-123 -204t-43 -250zM512 729q0 98 28.5 180t81 141.5t126 92.5t163.5 33q76 0 119 -8.5t84 -20.5q-4 -35 -9 -57.5t-20 -51.5q-43 12 -81.5 17.5 t-85.5 5.5q-139 0 -207 -90t-68 -242q0 -154 74 -235.5t207 -81.5q43 0 86 10t77 29q16 -29 24.5 -50.5t18.5 -52.5q-41 -20 -99 -34.5t-118 -14.5q-92 0 -166.5 30.5t-127 88t-80 136.5t-27.5 175z" />
<glyph unicode="&#xaa;" horiz-adv-x="1024" d="M127 854q0 135 100.5 208t259.5 73q51 0 96.5 -3.5t75.5 -7.5v39q0 102 -53 147.5t-160 45.5q-61 0 -115.5 -9.5t-101.5 -23.5q-10 16 -15 52t-5 61q41 12 107.5 21t138.5 9q166 0 247.5 -69.5t81.5 -218.5v-549q-59 -10 -146 -21.5t-165 -11.5q-176 0 -261 61.5 t-85 196.5zM250 858q0 -49 20.5 -79.5t53 -46t73.5 -20.5t80 -5q51 0 95 3t87 11v291q-29 4 -69.5 7t-75.5 3q-125 0 -194.5 -43t-69.5 -121z" />
<glyph unicode="&#xab;" horiz-adv-x="1230" d="M113 547l358 452q37 6 76 7q39 0 80 -7l-351 -448l351 -457q-37 -6 -76 -6q-41 0 -80 6zM609 547l358 452q37 6 76 7q39 0 80 -7l-351 -448l351 -457q-37 -6 -76 -6q-41 0 -80 6z" />
<glyph unicode="&#xac;" d="M176 674q0 16 1 38.5t3 32.5h840v-557q-10 -2 -30.5 -3t-37.5 -1q-16 0 -38.5 1t-32.5 3v418h-701q-2 10 -3 31t-1 37z" />
<glyph unicode="&#xad;" horiz-adv-x="722" d="M88 582q0 16 1 37.5t3 31.5h539q2 -10 3 -31.5t1 -37.5t-1 -37t-3 -31h-539q-2 10 -3 31t-1 37z" />
<glyph unicode="&#xae;" horiz-adv-x="1769" d="M125 735q0 162 55.5 302.5t154.5 241.5t239.5 159.5t310.5 58.5t310 -57.5t239.5 -159.5t155 -241.5t55.5 -303.5t-55.5 -303t-155 -240.5t-239.5 -160t-310 -58.5t-310.5 58.5t-239.5 160t-154.5 240.5t-55.5 303zM264 735q0 -133 43 -249.5t123 -203.5t194.5 -137.5 t260.5 -50.5q145 0 260 50.5t194.5 137.5t122.5 203.5t43 249.5t-43 250t-122.5 204t-194.5 137t-260 50t-260 -50t-195 -137t-123 -204t-43 -250zM649 352v791q47 6 95.5 9t105.5 3q55 0 110.5 -11t101.5 -39t74.5 -74t28.5 -118q0 -47 -15 -83.5t-37.5 -65.5t-51.5 -49.5 t-55 -32.5l239 -328q-29 -4 -45 -4h-31h-32q-14 0 -29 2l-270 369l47 18q25 10 52.5 24.5t52 35t39.5 47t15 61.5q0 70 -54 105t-130 35q-45 0 -90 -7v-688q-10 -2 -24.5 -3t-36.5 -1q-23 0 -36.5 1t-23.5 3z" />
<glyph unicode="&#xaf;" horiz-adv-x="1024" d="M227 1346q0 12 1 29.5t3 27.5h562q2 -10 3 -27.5t1 -29.5t-1 -30t-3 -26h-562q-2 8 -3 26t-1 30z" />
<glyph unicode="&#xb0;" horiz-adv-x="745" d="M86 1196q0 61 23.5 114.5t63.5 92.5t93 61.5t113 22.5q59 0 112.5 -22.5t93.5 -61.5t63.5 -92.5t23.5 -114.5t-23.5 -114.5t-63.5 -92.5t-93.5 -61.5t-112.5 -22.5t-112.5 22.5t-93.5 61.5t-63.5 92.5t-23.5 114.5zM207 1196q0 -78 48 -129t124 -51t124 51t48 129 t-48 129t-124 51t-124 -51t-48 -129z" />
<glyph unicode="&#xb1;" d="M193 685v34v33q0 16 4 32h352v379q16 2 32.5 3t32.5 1t33 -1t35 -3v-379h352q2 -16 3 -32.5t1 -32.5t-1 -33.5t-3 -34.5h-352v-379q-18 -4 -35 -4h-33h-32q-16 0 -33 4v379h-352q-4 17 -4 34zM174 72q0 16 1 38.5t3 33.5h873q2 -10 3 -33t1 -39t-1 -36.5t-3 -31.5h-873 q-2 10 -3 31t-1 37z" />
<glyph unicode="&#xb2;" horiz-adv-x="921" d="M158 645l254 256q80 80 128 160t48 137q0 72 -50.5 102.5t-142.5 30.5q-59 0 -100 -10t-76 -21q-6 12 -13 44t-13 67q59 23 110 30t111 7q141 0 224 -61.5t83 -178.5q0 -90 -46 -175t-140 -177l-117 -115h356v-112h-610z" />
<glyph unicode="&#xb3;" horiz-adv-x="921" d="M174 635l31 110q100 -31 190 -30q47 0 90 9t75 30.5t50.5 53.5t18.5 79q0 39 -17.5 68.5t-45 48t-64.5 27.5t-76 9h-37q-14 0 -33 -4l-8 13l195 292h-314v107h498l10 -21l-207 -303q63 -6 108.5 -29.5t74 -57t42 -72.5t13.5 -74q0 -68 -27.5 -121t-77 -90t-116 -56.5 t-146.5 -19.5q-68 0 -116 7.5t-111 23.5z" />
<glyph unicode="&#xb4;" horiz-adv-x="1024" d="M299 1214l240 267q23 4 46 4h46q25 0 49.5 -1t46.5 -3l-276 -267q-37 -6 -84 -6q-31 0 -68 6z" />
<glyph unicode="&#xb5;" horiz-adv-x="1245" d="M180 -483v1527q12 2 35 3.5t33 1.5q12 0 33.5 -1t33.5 -4v-548q0 -188 67 -294t224 -106q49 0 106.5 16.5t105.5 56.5t80 104.5t32 162.5v608q12 2 34.5 3.5t32.5 1.5q12 0 34 -1t34 -4v-1044q-12 -2 -30.5 -3t-30.5 -1h-30q-19 0 -32 4q-8 68 -12 143q-43 -66 -124 -117 t-210 -51q-186 0 -281 138v-596q-12 -2 -34.5 -3t-32.5 -1q-12 0 -34 1t-34 3z" />
<glyph unicode="&#xb6;" horiz-adv-x="1126" d="M102 1040q0 121 32 206t103.5 138.5t187.5 77t284 23.5v-1497q-45 0 -73 3t-54 9v641h-27q-100 0 -183 24.5t-143.5 73.5t-93.5 124t-33 177zM881 -12v1497q45 0 72.5 -3t54.5 -9v-1473q-27 -6 -54.5 -9t-72.5 -3z" />
<glyph unicode="&#xb7;" horiz-adv-x="419" d="M117 565q0 45 6 88q43 6 86 6q45 0 88 -6q6 -43 6 -86q0 -45 -6 -88q-43 -6 -86 -6q-45 0 -88 6q-6 43 -6 86z" />
<glyph unicode="&#xb8;" horiz-adv-x="1024" d="M299 -467q0 27 4 52.5t19 47.5q29 -10 61.5 -17t65.5 -7q70 0 110.5 23.5t40.5 72.5q0 45 -40 63.5t-105 18.5q-29 0 -55.5 -4t-51.5 -8l-10 8l100 266h119l-72 -174q10 2 20 2h19q104 0 154.5 -49t50.5 -125q0 -98 -75.5 -147.5t-204.5 -49.5q-27 0 -71 5.5t-79 21.5z " />
<glyph unicode="&#xb9;" horiz-adv-x="921" d="M182 1294l377 162h25v-717h202q2 -14 3.5 -27.5t1.5 -27.5t-1.5 -27.5t-3.5 -27.5h-553q-6 27 -6 55q0 27 6 55h218v547l-220 -90q-20 18 -31.5 45.5t-17.5 52.5z" />
<glyph unicode="&#xba;" horiz-adv-x="1024" d="M139 1042q0 90 24.5 169t72 137.5t117 91.5t161.5 33t161.5 -33t117 -91.5t71 -137t23.5 -169.5q0 -94 -23.5 -174t-71 -138t-117 -92t-161.5 -34t-161.5 34t-117 92t-72 138t-24.5 174zM276 1042q0 -150 58.5 -233.5t179.5 -83.5q119 0 177.5 84t58.5 233 q0 145 -58.5 229.5t-177.5 84.5q-121 0 -179.5 -84.5t-58.5 -229.5z" />
<glyph unicode="&#xbb;" d="M109 94l350 449l-350 456q37 6 75 7q39 0 80 -7l359 -452l-359 -453q-37 -6 -76 -6q-40 0 -79 6zM603 94l350 449l-350 456q37 6 75 7q39 0 80 -7l359 -452l-359 -453q-37 -6 -76 -6q-40 0 -79 6z" />
<glyph unicode="&#xbc;" horiz-adv-x="2150" d="M135 1294l377 162h25v-717h202q2 -14 3.5 -27.5t1.5 -27.5t-1.5 -27.5t-3.5 -27.5h-553q-6 27 -6 55q0 27 6 55h218v547l-220 -90q-20 18 -31.5 45.5t-17.5 52.5zM533 0l991 1448q16 2 33.5 3t34.5 1q20 0 39.5 -1t40.5 -3l-990 -1448q-20 -4 -39 -4h-36h-38q-20 0 -36 4 zM1291 188l342 664q59 -10 116 -37l-272 -529h260v176q31 6 59 7q27 0 62 -7v-176h106q6 -23 7 -57q0 -16 -1 -31.5t-6 -25.5h-106v-168q-16 -2 -28.5 -3t-24.5 -1q-16 0 -32.5 1t-35.5 3v168h-434z" />
<glyph unicode="&#xbd;" horiz-adv-x="2150" d="M135 1294l377 162h25v-717h202q2 -14 3.5 -27.5t1.5 -27.5t-1.5 -27.5t-3.5 -27.5h-553q-6 27 -6 55q0 27 6 55h218v547l-220 -90q-20 18 -31.5 45.5t-17.5 52.5zM1350 20l254 256q80 80 128 160t48 137q0 72 -50.5 102.5t-142.5 30.5q-59 0 -100 -10t-76 -21 q-6 12 -13 44t-13 67q59 23 110 30t111 7q141 0 224 -61.5t83 -178.5q0 -90 -46 -175t-140 -177l-117 -115h356v-112h-610zM496 0l991 1448q16 2 33.5 3t34.5 1q20 0 39.5 -1t40.5 -3l-990 -1448q-20 -4 -39 -4h-36h-38q-20 0 -36 4z" />
<glyph unicode="&#xbe;" horiz-adv-x="2150" d="M168 635l31 110q100 -31 190 -30q47 0 90 9t75 30.5t50.5 53.5t18.5 79q0 39 -17.5 68.5t-45 48t-64.5 27.5t-76 9h-37q-14 0 -33 -4l-8 13l195 292h-314v107h498l10 -21l-207 -303q63 -6 108.5 -29.5t74 -57t42 -72.5t13.5 -74q0 -68 -27.5 -121t-77 -90t-116 -56.5 t-146.5 -19.5q-68 0 -116 7.5t-111 23.5zM1319 207l342 664q59 -10 116 -37l-272 -529h260v176q31 6 59 7q27 0 62 -7v-176h106q6 -23 7 -57q0 -16 -1 -31.5t-6 -25.5h-106v-168q-16 -2 -28.5 -3t-24.5 -1q-16 0 -32.5 1t-35.5 3v168h-434zM551 0l991 1448q16 2 33.5 3 t34.5 1q20 0 39.5 -1t40.5 -3l-990 -1448q-20 -4 -39 -4h-36h-38q-20 0 -36 4z" />
<glyph unicode="&#xbf;" horiz-adv-x="993" d="M135 -20q0 104 45 181t106.5 127t124 78.5t97.5 39.5v229q18 2 36.5 3t35.5 1q16 0 34.5 -1t32.5 -3v-318l-69 -22q-53 -16 -104.5 -42t-93.5 -62.5t-67.5 -88t-25.5 -118.5q0 -139 98 -210t256 -71q96 0 153.5 14.5t112.5 32.5q12 -29 20.5 -57.5t18.5 -65.5 q-90 -29 -162.5 -40t-162.5 -11q-240 0 -363 109t-123 295zM481 963q0 45 6 88q43 6 86 6q45 0 89 -6q6 -43 6 -86q0 -45 -6 -88q-43 -6 -87 -7q-45 0 -88 7q-6 43 -6 86z" />
<glyph unicode="&#xc0;" horiz-adv-x="1232" d="M41 0l491 1473q14 2 39 3t45 1q23 0 46.5 -1t37.5 -3l492 -1473q-12 -2 -34.5 -3t-43.5 -1q-18 0 -38.5 1t-35.5 3l-122 375h-607l-116 -375q-16 -2 -38 -3t-40 -1q-20 0 -42 1t-34 3zM352 506h525l-265 819zM328 1821q45 6 100 6q49 0 97 -6l227 -228q-37 -6 -72 -6 q-51 0 -88 6z" />
<glyph unicode="&#xc1;" horiz-adv-x="1232" d="M41 0l491 1473q14 2 39 3t45 1q23 0 46.5 -1t37.5 -3l492 -1473q-12 -2 -34.5 -3t-43.5 -1q-18 0 -38.5 1t-35.5 3l-122 375h-607l-116 -375q-16 -2 -38 -3t-40 -1q-20 0 -42 1t-34 3zM352 506h525l-265 819zM459 1593l227 228q45 6 97 6q53 0 100 -6l-264 -228 q-37 -6 -88 -6q-35 0 -72 6z" />
<glyph unicode="&#xc2;" horiz-adv-x="1232" d="M41 0l491 1473q14 2 39 3t45 1q23 0 46.5 -1t37.5 -3l492 -1473q-12 -2 -34.5 -3t-43.5 -1q-18 0 -38.5 1t-35.5 3l-122 375h-607l-116 -375q-16 -2 -38 -3t-40 -1q-20 0 -42 1t-34 3zM352 506h525l-265 819zM282 1593l258 228q37 6 76 6q35 0 76 -6l252 -228 q-18 -4 -40 -5t-38 -1t-40 1t-48 5l-162 144l-164 -144q-49 -6 -88 -6q-16 0 -39 1t-43 5z" />
<glyph unicode="&#xc3;" horiz-adv-x="1232" d="M41 0l491 1473q14 2 39 3t45 1q23 0 46.5 -1t37.5 -3l492 -1473q-12 -2 -34.5 -3t-43.5 -1q-18 0 -38.5 1t-35.5 3l-122 375h-607l-116 -375q-16 -2 -38 -3t-40 -1q-20 0 -42 1t-34 3zM352 506h525l-265 819zM267 1753q31 33 80 64.5t108 31.5q45 0 91 -18.5t90 -40 t86 -38.5t83 -17t68.5 17t64.5 52q16 -23 28.5 -46t22.5 -48q-33 -31 -81 -60.5t-109 -29.5q-45 0 -89 17.5t-88 38t-85 38t-80 17.5q-47 0 -75.5 -18.5t-63.5 -49.5q-35 41 -51 90z" />
<glyph unicode="&#xc4;" horiz-adv-x="1232" d="M41 0l491 1473q14 2 39 3t45 1q23 0 46.5 -1t37.5 -3l492 -1473q-12 -2 -34.5 -3t-43.5 -1q-18 0 -38.5 1t-35.5 3l-122 375h-607l-116 -375q-16 -2 -38 -3t-40 -1q-20 0 -42 1t-34 3zM352 506h525l-265 819zM307 1704q0 45 6 92q45 6 88 6q49 0 90 -6q6 -47 6 -90 q0 -47 -6 -92q-41 -6 -88 -6q-45 0 -90 6q-6 45 -6 90zM735 1704q0 45 6 92q39 6 88 6q43 0 90 -6q6 -47 6 -90q0 -47 -6 -92q-47 -6 -88 -6q-51 0 -90 6q-6 45 -6 90z" />
<glyph unicode="&#xc5;" horiz-adv-x="1232" d="M41 0l489 1466q-70 25 -109.5 83.5t-39.5 136.5q0 49 16.5 91t47 72.5t73.5 49t96 18.5q51 0 94.5 -18.5t74 -49t48 -72.5t17.5 -91q0 -76 -40 -134.5t-108 -83.5l492 -1468q-12 -2 -34.5 -3t-43.5 -1q-18 0 -38.5 1t-35.5 3l-122 375h-607l-116 -375q-16 -2 -38 -3 t-40 -1q-20 0 -42 1t-34 3zM352 506h525l-265 819zM494 1686q0 -59 30.5 -98.5t89.5 -39.5t90 39t31 99q0 59 -30.5 98t-90.5 39q-59 0 -89.5 -39t-30.5 -98z" />
<glyph unicode="&#xc6;" horiz-adv-x="1835" d="M-35 0l895 1473h864q2 -12 3.5 -30t1.5 -34q0 -14 -1.5 -33.5t-3.5 -32.5h-647v-538h520q2 -12 3.5 -29.5t1.5 -34.5q0 -14 -1.5 -33.5t-3.5 -31.5h-520v-547h666q2 -12 3 -29.5t1 -33.5q0 -14 -1 -34t-3 -32h-807v377h-584l-221 -377q-47 -6 -86 -6q-43 0 -80 6z M428 506h508v848h-8z" />
<glyph unicode="&#xc7;" horiz-adv-x="1265" d="M131 721q0 184 48 328.5t135 244t211 151.5t278 52q129 0 215 -18.5t125 -30.5q-4 -37 -11.5 -61.5t-21.5 -59.5q-27 8 -54.5 16.5t-62.5 14.5t-81 10t-107 4q-121 0 -217 -44t-164 -128t-104.5 -205t-36.5 -274q0 -158 41 -274.5t113.5 -193.5t170 -114t209.5 -37 q96 0 175 18.5t132 47.5q16 -31 28.5 -59.5t18.5 -59.5q-70 -35 -166 -54.5t-204 -19.5l-39 -98q10 2 18 2h19q104 0 155.5 -50t51.5 -126q0 -98 -77 -147.5t-206 -49.5q-27 0 -71 5.5t-79 21.5q0 25 4.5 52.5t18.5 49.5q29 -10 61.5 -17t65.5 -7q70 0 110.5 22.5t40.5 71.5 q0 45 -39.5 63.5t-105.5 18.5q-29 0 -55.5 -4t-50.5 -8l-11 8l76 201q-127 18 -229.5 74.5t-175 149.5t-112.5 221t-40 292z" />
<glyph unicode="&#xc8;" horiz-adv-x="1105" d="M207 0v1473h788q2 -12 3 -30t1 -34q0 -14 -1 -33.5t-3 -32.5h-647v-497h520q2 -12 3 -29.5t1 -34.5q0 -14 -1 -33.5t-3 -31.5h-520v-588h666q2 -12 3 -29.5t1 -33.5q0 -14 -1 -34t-3 -32h-807zM313 1821q45 6 100 6q49 0 97 -6l227 -228q-37 -6 -72 -6q-51 0 -88 6z" />
<glyph unicode="&#xc9;" horiz-adv-x="1105" d="M207 0v1473h788q2 -12 3 -30t1 -34q0 -14 -1 -33.5t-3 -32.5h-647v-497h520q2 -12 3 -29.5t1 -34.5q0 -14 -1 -33.5t-3 -31.5h-520v-588h666q2 -12 3 -29.5t1 -33.5q0 -14 -1 -34t-3 -32h-807zM451 1593l227 228q45 6 97 6q53 0 100 -6l-264 -228q-37 -6 -88 -6 q-35 0 -72 6z" />
<glyph unicode="&#xca;" horiz-adv-x="1105" d="M207 0v1473h788q2 -12 3 -30t1 -34q0 -14 -1 -33.5t-3 -32.5h-647v-497h520q2 -12 3 -29.5t1 -34.5q0 -14 -1 -33.5t-3 -31.5h-520v-588h666q2 -12 3 -29.5t1 -33.5q0 -14 -1 -34t-3 -32h-807zM264 1593l258 228q37 6 76 6q35 0 76 -6l252 -228q-18 -4 -40 -5t-38 -1 t-40 1t-48 5l-162 144l-164 -144q-49 -6 -88 -6q-16 0 -39 1t-43 5z" />
<glyph unicode="&#xcb;" horiz-adv-x="1105" d="M207 0v1473h788q2 -12 3 -30t1 -34q0 -14 -1 -33.5t-3 -32.5h-647v-497h520q2 -12 3 -29.5t1 -34.5q0 -14 -1 -33.5t-3 -31.5h-520v-588h666q2 -12 3 -29.5t1 -33.5q0 -14 -1 -34t-3 -32h-807zM291 1704q0 45 6 92q45 6 88 6q49 0 90 -6q6 -47 6 -90q0 -47 -6 -92 q-41 -6 -88 -6q-45 0 -90 6q-6 45 -6 90zM719 1704q0 45 6 92q39 6 88 6q43 0 90 -6q6 -47 6 -90q0 -47 -6 -92q-47 -6 -88 -6q-51 0 -90 6q-6 45 -6 90z" />
<glyph unicode="&#xcc;" horiz-adv-x="555" d="M207 0v1473q14 2 34.5 3t37.5 1q18 0 36.5 -1t32.5 -3v-1473q-14 -2 -32.5 -3t-36.5 -1q-20 0 -40 1t-32 3zM6 1821q45 6 100 6q49 0 97 -6l227 -228q-37 -6 -72 -6q-51 0 -88 6z" />
<glyph unicode="&#xcd;" horiz-adv-x="555" d="M207 0v1473q14 2 34.5 3t37.5 1q18 0 36.5 -1t32.5 -3v-1473q-14 -2 -32.5 -3t-36.5 -1q-20 0 -40 1t-32 3zM131 1593l227 228q45 6 97 6q53 0 100 -6l-264 -228q-37 -6 -88 -6q-35 0 -72 6z" />
<glyph unicode="&#xce;" horiz-adv-x="555" d="M207 0v1473q14 2 34.5 3t37.5 1q18 0 36.5 -1t32.5 -3v-1473q-14 -2 -32.5 -3t-36.5 -1q-20 0 -40 1t-32 3zM-51 1593l258 228q37 6 76 6q35 0 76 -6l252 -228q-18 -4 -40 -5t-38 -1t-40 1t-48 5l-162 144l-164 -144q-49 -6 -88 -6q-16 0 -39 1t-43 5z" />
<glyph unicode="&#xcf;" horiz-adv-x="555" d="M207 0v1473q14 2 34.5 3t37.5 1q18 0 36.5 -1t32.5 -3v-1473q-14 -2 -32.5 -3t-36.5 -1q-20 0 -40 1t-32 3zM-28 1704q0 45 6 92q45 6 88 6q49 0 90 -6q6 -47 6 -90q0 -47 -6 -92q-41 -6 -88 -6q-45 0 -90 6q-6 45 -6 90zM400 1704q0 45 6 92q39 6 88 6q43 0 90 -6 q6 -47 6 -90q0 -47 -6 -92q-47 -6 -88 -6q-51 0 -90 6q-6 45 -6 90z" />
<glyph unicode="&#xd0;" horiz-adv-x="1462" d="M43 741q0 12 1 29.5t3 28.5h191v674q29 4 70.5 8t88.5 7t94.5 5t86.5 2q193 0 335 -52t235 -149.5t138 -238t45 -316.5q0 -764 -753 -764q-43 0 -92.5 2.5t-95.5 5.5t-86 8t-66 9v686h-191q-2 8 -3 25.5t-1 29.5zM379 123q37 -4 87 -8t103 -4q141 0 255 30.5t194 104 t123 195.5t43 304q0 317 -163 466t-452 149q-47 0 -101 -2t-89 -8v-551h366q2 -10 3.5 -27.5t1.5 -30.5q0 -12 -1 -29.5t-4 -25.5h-366v-563z" />
<glyph unicode="&#xd1;" horiz-adv-x="1409" d="M207 0v1473q14 2 37.5 3t40.5 1q16 0 38.5 -1t36.5 -3l705 -1233v1233q14 2 31.5 3t36.5 1q16 0 35.5 -1t33.5 -3v-1473q-12 -2 -35.5 -3t-42.5 -1q-16 0 -38.5 1t-36.5 3l-705 1223v-1223q-14 -2 -31.5 -3t-36.5 -1q-20 0 -38.5 1t-30.5 3zM345 1753q31 33 80 64.5 t108 31.5q45 0 91 -18.5t90 -40t86 -38.5t83 -17t68.5 17t64.5 52q16 -23 28.5 -46t22.5 -48q-33 -31 -81 -60.5t-109 -29.5q-45 0 -89 17.5t-88 38t-85 38t-80 17.5q-47 0 -75.5 -18.5t-63.5 -49.5q-35 41 -51 90z" />
<glyph unicode="&#xd2;" horiz-adv-x="1478" d="M131 737q0 166 38 305.5t112.5 240.5t189.5 157.5t268 56.5q154 0 268.5 -56.5t189.5 -157.5t113 -240.5t38 -305.5t-38 -306t-113 -241.5t-189.5 -158t-268.5 -56.5t-268.5 56.5t-189 158t-112.5 241.5t-38 306zM279 737q0 -139 27.5 -255.5t83.5 -200.5t143.5 -130.5 t205.5 -46.5q119 0 205 46.5t143.5 130.5t85 200.5t27.5 255.5t-27.5 256t-85 200t-143.5 129t-205 46t-206 -46t-143 -129t-83.5 -200t-27.5 -256zM442 1821q45 6 100 6q49 0 97 -6l227 -228q-37 -6 -72 -6q-51 0 -88 6z" />
<glyph unicode="&#xd3;" horiz-adv-x="1478" d="M131 737q0 166 38 305.5t112.5 240.5t189.5 157.5t268 56.5q154 0 268.5 -56.5t189.5 -157.5t113 -240.5t38 -305.5t-38 -306t-113 -241.5t-189.5 -158t-268.5 -56.5t-268.5 56.5t-189 158t-112.5 241.5t-38 306zM279 737q0 -139 27.5 -255.5t83.5 -200.5t143.5 -130.5 t205.5 -46.5q119 0 205 46.5t143.5 130.5t85 200.5t27.5 255.5t-27.5 256t-85 200t-143.5 129t-205 46t-206 -46t-143 -129t-83.5 -200t-27.5 -256zM569 1593l227 228q45 6 97 6q53 0 100 -6l-264 -228q-37 -6 -88 -6q-35 0 -72 6z" />
<glyph unicode="&#xd4;" horiz-adv-x="1478" d="M131 737q0 166 38 305.5t112.5 240.5t189.5 157.5t268 56.5q154 0 268.5 -56.5t189.5 -157.5t113 -240.5t38 -305.5t-38 -306t-113 -241.5t-189.5 -158t-268.5 -56.5t-268.5 56.5t-189 158t-112.5 241.5t-38 306zM279 737q0 -139 27.5 -255.5t83.5 -200.5t143.5 -130.5 t205.5 -46.5q119 0 205 46.5t143.5 130.5t85 200.5t27.5 255.5t-27.5 256t-85 200t-143.5 129t-205 46t-206 -46t-143 -129t-83.5 -200t-27.5 -256zM407 1593l258 228q37 6 76 6q35 0 76 -6l252 -228q-18 -4 -40 -5t-38 -1t-40 1t-48 5l-162 144l-164 -144q-49 -6 -88 -6 q-16 0 -39 1t-43 5z" />
<glyph unicode="&#xd5;" horiz-adv-x="1478" d="M131 737q0 166 38 305.5t112.5 240.5t189.5 157.5t268 56.5q154 0 268.5 -56.5t189.5 -157.5t113 -240.5t38 -305.5t-38 -306t-113 -241.5t-189.5 -158t-268.5 -56.5t-268.5 56.5t-189 158t-112.5 241.5t-38 306zM279 737q0 -139 27.5 -255.5t83.5 -200.5t143.5 -130.5 t205.5 -46.5q119 0 205 46.5t143.5 130.5t85 200.5t27.5 255.5t-27.5 256t-85 200t-143.5 129t-205 46t-206 -46t-143 -129t-83.5 -200t-27.5 -256zM379 1753q31 33 80 64.5t108 31.5q45 0 91 -18.5t90 -40t86 -38.5t83 -17t68.5 17t64.5 52q16 -23 28.5 -46t22.5 -48 q-33 -31 -81 -60.5t-109 -29.5q-45 0 -89 17.5t-88 38t-85 38t-80 17.5q-47 0 -75.5 -18.5t-63.5 -49.5q-35 41 -51 90z" />
<glyph unicode="&#xd6;" horiz-adv-x="1478" d="M131 737q0 166 38 305.5t112.5 240.5t189.5 157.5t268 56.5q154 0 268.5 -56.5t189.5 -157.5t113 -240.5t38 -305.5t-38 -306t-113 -241.5t-189.5 -158t-268.5 -56.5t-268.5 56.5t-189 158t-112.5 241.5t-38 306zM279 737q0 -139 27.5 -255.5t83.5 -200.5t143.5 -130.5 t205.5 -46.5q119 0 205 46.5t143.5 130.5t85 200.5t27.5 255.5t-27.5 256t-85 200t-143.5 129t-205 46t-206 -46t-143 -129t-83.5 -200t-27.5 -256zM430 1704q0 45 6 92q45 6 88 6q49 0 90 -6q6 -47 6 -90q0 -47 -6 -92q-41 -6 -88 -6q-45 0 -90 6q-6 45 -6 90zM858 1704 q0 45 6 92q39 6 88 6q43 0 90 -6q6 -47 6 -90q0 -47 -6 -92q-47 -6 -88 -6q-51 0 -90 6q-6 45 -6 90z" />
<glyph unicode="&#xd7;" d="M256 475l264 264l-262 265q39 51 94 94l262 -264l265 262q55 -43 94 -95l-262 -262l262 -262q-43 -57 -94 -94l-263 262l-266 -264q-51 39 -94 94z" />
<glyph unicode="&#xd8;" horiz-adv-x="1478" d="M127 0l145 201q-72 102 -106.5 238t-34.5 298q0 166 38 305.5t112.5 240.5t189.5 157.5t268 56.5q119 0 214.5 -35t166.5 -98l80 109q37 6 72 6t69 -6l-141 -195q74 -100 111 -237.5t37 -303.5t-38 -306t-113 -241.5t-189.5 -158t-268.5 -56.5q-123 0 -219 36t-170 102 l-82 -113q-35 -6 -69 -6q-35 0 -72 6zM279 737q0 -123 20 -227t63 -184l676 925q-55 55 -128.5 86t-170.5 31q-119 0 -206 -46t-143 -129t-83.5 -200t-27.5 -256zM434 227q55 -59 131 -91t174 -32q119 0 205 46.5t143.5 130.5t85 200.5t27.5 255.5q0 125 -21.5 231.5 t-68.5 186.5z" />
<glyph unicode="&#xd9;" horiz-adv-x="1384" d="M190 565v908q14 2 35 3t37 1q18 0 36.5 -1t33.5 -3v-889q0 -129 21.5 -218.5t65.5 -146.5t111.5 -82.5t161.5 -25.5q186 0 273.5 108.5t87.5 364.5v889q14 2 32.5 3t36.5 1q16 0 37 -1t35 -3v-908q0 -295 -121 -442.5t-381 -147.5t-381 147.5t-121 442.5zM408 1821 q45 6 100 6q49 0 97 -6l227 -228q-37 -6 -72 -6q-51 0 -88 6z" />
<glyph unicode="&#xda;" horiz-adv-x="1384" d="M190 565v908q14 2 35 3t37 1q18 0 36.5 -1t33.5 -3v-889q0 -129 21.5 -218.5t65.5 -146.5t111.5 -82.5t161.5 -25.5q186 0 273.5 108.5t87.5 364.5v889q14 2 32.5 3t36.5 1q16 0 37 -1t35 -3v-908q0 -295 -121 -442.5t-381 -147.5t-381 147.5t-121 442.5zM571 1593 l227 228q45 6 97 6q53 0 100 -6l-264 -228q-37 -6 -88 -6q-35 0 -72 6z" />
<glyph unicode="&#xdb;" horiz-adv-x="1384" d="M190 565v908q14 2 35 3t37 1q18 0 36.5 -1t33.5 -3v-889q0 -129 21.5 -218.5t65.5 -146.5t111.5 -82.5t161.5 -25.5q186 0 273.5 108.5t87.5 364.5v889q14 2 32.5 3t36.5 1q16 0 37 -1t35 -3v-908q0 -295 -121 -442.5t-381 -147.5t-381 147.5t-121 442.5zM360 1593 l258 228q37 6 76 6q35 0 76 -6l252 -228q-18 -4 -40 -5t-38 -1t-40 1t-48 5l-162 144l-164 -144q-49 -6 -88 -6q-16 0 -39 1t-43 5z" />
<glyph unicode="&#xdc;" horiz-adv-x="1384" d="M190 565v908q14 2 35 3t37 1q18 0 36.5 -1t33.5 -3v-889q0 -129 21.5 -218.5t65.5 -146.5t111.5 -82.5t161.5 -25.5q186 0 273.5 108.5t87.5 364.5v889q14 2 32.5 3t36.5 1q16 0 37 -1t35 -3v-908q0 -295 -121 -442.5t-381 -147.5t-381 147.5t-121 442.5zM383 1704 q0 45 6 92q45 6 88 6q49 0 90 -6q6 -47 6 -90q0 -47 -6 -92q-41 -6 -88 -6q-45 0 -90 6q-6 45 -6 90zM811 1704q0 45 6 92q39 6 88 6q43 0 90 -6q6 -47 6 -90q0 -47 -6 -92q-47 -6 -88 -6q-51 0 -90 6q-6 45 -6 90z" />
<glyph unicode="&#xdd;" horiz-adv-x="1175" d="M49 1473q12 2 34.5 3t43.5 1q18 0 44 -1t40 -3l385 -779l379 779q16 2 35.5 3t38.5 1q20 0 42.5 -1t34.5 -3l-462 -926v-547q-14 -2 -33 -3t-37 -1q-20 0 -39.5 1t-32.5 3v547zM477 1593l227 228q45 6 97 6q53 0 100 -6l-264 -228q-37 -6 -88 -6q-35 0 -72 6z" />
<glyph unicode="&#xde;" horiz-adv-x="1177" d="M207 0v1473q14 2 32.5 3t36.5 1q20 0 40 -1t32 -3v-232q45 4 80 6t82 2q109 0 208 -26.5t174 -84t119 -149.5t44 -221t-44 -220t-119 -148.5t-174.5 -84t-207.5 -26.5q-47 0 -82 2t-80 6v-297q-14 -2 -32.5 -3t-36.5 -1q-20 0 -40 1t-32 3zM348 428q20 -2 36 -3l31 -2 q15 -1 34.5 -2t50.5 -1q74 0 145.5 12t130 50t94 106.5t35.5 181.5q0 111 -35.5 179.5t-94 106.5t-130.5 50t-145 12q-29 0 -48.5 -1t-35 -2t-31.5 -3t-37 -4v-680z" />
<glyph unicode="&#xdf;" horiz-adv-x="1120" d="M180 0v1028q0 113 16.5 204t57.5 154.5t110.5 98.5t178.5 35q166 0 253 -83t87 -225q0 -96 -29 -161.5t-64.5 -116.5t-64.5 -99.5t-29 -109.5q0 -45 24.5 -77t61.5 -59.5t80 -56t80 -64.5t61.5 -84t24.5 -118q0 -78 -25.5 -133t-69.5 -90t-105.5 -51.5t-133.5 -16.5 q-82 0 -138 15.5t-103 36.5q6 29 16 59.5t23 58.5q45 -18 91 -33.5t105 -15.5q37 0 73 6.5t63.5 23.5t45 49t17.5 83q0 57 -24.5 93t-60.5 63.5t-78 52.5t-78 57.5t-60.5 78.5t-24.5 116q0 74 30 130t64.5 109.5t64.5 112.5t30 139q0 96 -55.5 144.5t-145.5 48.5 q-76 0 -122 -22.5t-70.5 -68.5t-33 -119t-8.5 -171v-1022q-12 -2 -33.5 -3t-33.5 -1q-10 0 -33 1t-35 3z" />
<glyph unicode="&#xe0;" horiz-adv-x="1050" d="M113 297q0 82 31.5 146.5t88 108.5t135 66.5t173.5 22.5q74 0 127 -5t88 -9v63q0 135 -63.5 197.5t-188.5 62.5q-82 0 -149.5 -11t-121.5 -28q-10 18 -17 53t-7 66q53 16 131 27.5t160 11.5q199 0 295 -87t96 -273v-691q-72 -14 -174.5 -28.5t-194.5 -14.5 q-190 0 -299.5 76t-109.5 246zM248 301q0 -68 25.5 -108.5t66.5 -62t90 -29t98 -7.5q63 0 118.5 6t109.5 17v391q-35 4 -87.5 9t-99.5 5q-154 0 -237.5 -57.5t-83.5 -163.5zM227 1481q23 2 47.5 3t48.5 1h46q24 0 46 -4l240 -267q-37 -6 -68 -6q-47 0 -84 6z" />
<glyph unicode="&#xe1;" horiz-adv-x="1050" d="M113 297q0 82 31.5 146.5t88 108.5t135 66.5t173.5 22.5q74 0 127 -5t88 -9v63q0 135 -63.5 197.5t-188.5 62.5q-82 0 -149.5 -11t-121.5 -28q-10 18 -17 53t-7 66q53 16 131 27.5t160 11.5q199 0 295 -87t96 -273v-691q-72 -14 -174.5 -28.5t-194.5 -14.5 q-190 0 -299.5 76t-109.5 246zM248 301q0 -68 25.5 -108.5t66.5 -62t90 -29t98 -7.5q63 0 118.5 6t109.5 17v391q-35 4 -87.5 9t-99.5 5q-154 0 -237.5 -57.5t-83.5 -163.5zM352 1214l240 267q23 4 46 4h46q25 0 49.5 -1t46.5 -3l-276 -267q-37 -6 -84 -6q-31 0 -68 6z" />
<glyph unicode="&#xe2;" horiz-adv-x="1050" d="M113 297q0 82 31.5 146.5t88 108.5t135 66.5t173.5 22.5q74 0 127 -5t88 -9v63q0 135 -63.5 197.5t-188.5 62.5q-82 0 -149.5 -11t-121.5 -28q-10 18 -17 53t-7 66q53 16 131 27.5t160 11.5q199 0 295 -87t96 -273v-691q-72 -14 -174.5 -28.5t-194.5 -14.5 q-190 0 -299.5 76t-109.5 246zM248 301q0 -68 25.5 -108.5t66.5 -62t90 -29t98 -7.5q63 0 118.5 6t109.5 17v391q-35 4 -87.5 9t-99.5 5q-154 0 -237.5 -57.5t-83.5 -163.5zM190 1214l240 265q20 4 43.5 5t44.5 1q20 0 45 -1t45 -5l238 -265q-35 -6 -70 -6q-18 0 -43 1 t-45 5l-170 189l-170 -189q-23 -4 -46.5 -5t-41.5 -1q-37 0 -70 6z" />
<glyph unicode="&#xe3;" horiz-adv-x="1050" d="M113 297q0 82 31.5 146.5t88 108.5t135 66.5t173.5 22.5q74 0 127 -5t88 -9v63q0 135 -63.5 197.5t-188.5 62.5q-82 0 -149.5 -11t-121.5 -28q-10 18 -17 53t-7 66q53 16 131 27.5t160 11.5q199 0 295 -87t96 -273v-691q-72 -14 -174.5 -28.5t-194.5 -14.5 q-190 0 -299.5 76t-109.5 246zM248 301q0 -68 25.5 -108.5t66.5 -62t90 -29t98 -7.5q63 0 118.5 6t109.5 17v391q-35 4 -87.5 9t-99.5 5q-154 0 -237.5 -57.5t-83.5 -163.5zM184 1356q31 35 74 63.5t104 28.5q49 0 89 -16.5t77 -36t74 -36t80 -16.5q35 0 63.5 14.5 t69.5 51.5q33 -47 49 -98q-31 -33 -75 -60.5t-103 -27.5q-47 0 -87 16t-76 35.5t-73 36t-78 16.5q-43 0 -71.5 -16.5t-67.5 -48.5q-35 47 -49 94z" />
<glyph unicode="&#xe4;" horiz-adv-x="1050" d="M113 297q0 82 31.5 146.5t88 108.5t135 66.5t173.5 22.5q74 0 127 -5t88 -9v63q0 135 -63.5 197.5t-188.5 62.5q-82 0 -149.5 -11t-121.5 -28q-10 18 -17 53t-7 66q53 16 131 27.5t160 11.5q199 0 295 -87t96 -273v-691q-72 -14 -174.5 -28.5t-194.5 -14.5 q-190 0 -299.5 76t-109.5 246zM248 301q0 -68 25.5 -108.5t66.5 -62t90 -29t98 -7.5q63 0 118.5 6t109.5 17v391q-35 4 -87.5 9t-99.5 5q-154 0 -237.5 -57.5t-83.5 -163.5zM245 1341q0 45 6 89q39 6 82 6t84 -6q6 -43 7 -87q0 -45 -7 -88q-41 -6 -82 -6q-45 0 -84 6 q-6 43 -6 86zM636 1341q0 45 7 89q39 6 82 6t84 -6q6 -43 6 -87q0 -45 -6 -88q-41 -6 -82 -6q-45 0 -84 6q-7 43 -7 86z" />
<glyph unicode="&#xe5;" horiz-adv-x="1050" d="M113 297q0 82 31.5 146.5t88 108.5t135 66.5t173.5 22.5q74 0 127 -5t88 -9v63q0 135 -63.5 197.5t-188.5 62.5q-82 0 -149.5 -11t-121.5 -28q-10 18 -17 53t-7 66q53 16 131 27.5t160 11.5q199 0 295 -87t96 -273v-691q-72 -14 -174.5 -28.5t-194.5 -14.5 q-190 0 -299.5 76t-109.5 246zM248 301q0 -68 25.5 -108.5t66.5 -62t90 -29t98 -7.5q63 0 118.5 6t109.5 17v391q-35 4 -87.5 9t-99.5 5q-154 0 -237.5 -57.5t-83.5 -163.5zM329 1415q0 88 56.5 148.5t150.5 60.5q96 0 152.5 -60.5t56.5 -148.5q0 -86 -55.5 -146.5 t-153.5 -60.5q-96 0 -151.5 60.5t-55.5 146.5zM432 1415q0 -53 24.5 -85t79.5 -32q57 0 82 32t25 85t-25 86t-82 33q-55 0 -79.5 -33t-24.5 -86z" />
<glyph unicode="&#xe6;" horiz-adv-x="1738" d="M100 297q0 82 32 145.5t88 106.5t135 65.5t173 22.5q72 0 127.5 -4t89.5 -8v65q0 135 -64.5 197.5t-188.5 62.5q-82 0 -150 -11t-121 -28q-10 18 -17 53t-7 66q53 16 131 27.5t159 11.5q135 0 217 -46t134 -151q53 90 144 143.5t214 53.5q102 0 182 -35t134.5 -97.5 t82 -148.5t27.5 -188q0 -18 -1 -47t-3 -49h-746q0 -111 23 -188.5t69 -127t118.5 -71t174.5 -21.5q78 0 144.5 13.5t130.5 35.5q10 -23 16 -55.5t8 -58.5q-59 -27 -139 -41.5t-174 -14.5q-111 0 -204 25t-160 84q-63 -43 -168 -76t-217 -33q-90 0 -162 18.5t-124 57.5 t-80 100.5t-28 145.5zM236 301q0 -68 25.5 -108.5t63 -62t84 -29t87.5 -7.5q33 0 73.5 3t81.5 12.5t82 26t76 42.5q-35 53 -50.5 131t-15.5 156l-2 41q-35 4 -87 8t-97 4q-154 0 -237.5 -55.5t-83.5 -161.5zM877 616h610q0 63 -16.5 124t-51.5 108t-90 74.5t-133 27.5 q-143 0 -223 -87t-96 -247z" />
<glyph unicode="&#xe7;" horiz-adv-x="983" d="M121 522q0 117 32.5 216.5t96 173t159 115.5t220.5 42q78 0 148.5 -11t111.5 -26q0 -27 -7.5 -61.5t-15.5 -55.5q-41 14 -103.5 24.5t-133.5 10.5q-92 0 -161 -31.5t-115 -89t-68.5 -135.5t-22.5 -172q0 -221 105.5 -324.5t285.5 -103.5q61 0 117.5 10.5t101.5 26.5 q10 -20 19.5 -55t13.5 -58q-51 -18 -116.5 -30.5t-145.5 -12.5h-25l-40 -100q10 2 19 2h19q104 0 154.5 -49t50.5 -125q0 -98 -75.5 -147.5t-204.5 -49.5q-27 0 -71 5.5t-79 21.5q0 27 4 52.5t19 47.5q29 -10 61.5 -17t65.5 -7q70 0 110.5 23.5t40.5 72.5q0 45 -40 63.5 t-105 18.5q-29 0 -55.5 -4t-51.5 -8l-10 8l76 205q-190 35 -287.5 170t-97.5 364z" />
<glyph unicode="&#xe8;" horiz-adv-x="1132" d="M123 516q0 115 27.5 215t84 176t144.5 119t211 43q102 0 182 -35t134.5 -97.5t82 -149.5t27.5 -189q0 -18 -1 -47t-3 -49h-746q0 -209 96.5 -307.5t288.5 -98.5q78 0 144.5 13.5t130.5 35.5q10 -23 16 -55.5t8 -58.5q-59 -27 -139 -41.5t-174 -14.5q-135 0 -232.5 40 t-160 112t-92 171t-29.5 218zM270 614h611q0 63 -16.5 125t-51.5 108t-90 74.5t-133 28.5q-143 0 -223.5 -88t-96.5 -248zM322 1481q23 2 47.5 3t48.5 1h46q24 0 46 -4l240 -267q-37 -6 -68 -6q-47 0 -84 6z" />
<glyph unicode="&#xe9;" horiz-adv-x="1132" d="M123 516q0 115 27.5 215t84 176t144.5 119t211 43q102 0 182 -35t134.5 -97.5t82 -149.5t27.5 -189q0 -18 -1 -47t-3 -49h-746q0 -209 96.5 -307.5t288.5 -98.5q78 0 144.5 13.5t130.5 35.5q10 -23 16 -55.5t8 -58.5q-59 -27 -139 -41.5t-174 -14.5q-135 0 -232.5 40 t-160 112t-92 171t-29.5 218zM270 614h611q0 63 -16.5 125t-51.5 108t-90 74.5t-133 28.5q-143 0 -223.5 -88t-96.5 -248zM432 1214l240 267q23 4 46 4h46q25 0 49.5 -1t46.5 -3l-276 -267q-37 -6 -84 -6q-31 0 -68 6z" />
<glyph unicode="&#xea;" horiz-adv-x="1132" d="M123 516q0 115 27.5 215t84 176t144.5 119t211 43q102 0 182 -35t134.5 -97.5t82 -149.5t27.5 -189q0 -18 -1 -47t-3 -49h-746q0 -209 96.5 -307.5t288.5 -98.5q78 0 144.5 13.5t130.5 35.5q10 -23 16 -55.5t8 -58.5q-59 -27 -139 -41.5t-174 -14.5q-135 0 -232.5 40 t-160 112t-92 171t-29.5 218zM270 614h611q0 63 -16.5 125t-51.5 108t-90 74.5t-133 28.5q-143 0 -223.5 -88t-96.5 -248zM256 1214l240 265q20 4 43.5 5t44.5 1q20 0 45 -1t45 -5l238 -265q-35 -6 -70 -6q-18 0 -43 1t-45 5l-170 189l-170 -189q-23 -4 -46.5 -5t-41.5 -1 q-37 0 -70 6z" />
<glyph unicode="&#xeb;" horiz-adv-x="1132" d="M123 516q0 115 27.5 215t84 176t144.5 119t211 43q102 0 182 -35t134.5 -97.5t82 -149.5t27.5 -189q0 -18 -1 -47t-3 -49h-746q0 -209 96.5 -307.5t288.5 -98.5q78 0 144.5 13.5t130.5 35.5q10 -23 16 -55.5t8 -58.5q-59 -27 -139 -41.5t-174 -14.5q-135 0 -232.5 40 t-160 112t-92 171t-29.5 218zM270 614h611q0 63 -16.5 125t-51.5 108t-90 74.5t-133 28.5q-143 0 -223.5 -88t-96.5 -248zM295 1341q0 45 6 89q39 6 82 6t84 -6q6 -43 7 -87q0 -45 -7 -88q-41 -6 -82 -6q-45 0 -84 6q-6 43 -6 86zM686 1341q0 45 7 89q39 6 82 6t84 -6 q6 -43 6 -87q0 -45 -6 -88q-41 -6 -82 -6q-45 0 -84 6q-7 43 -7 86z" />
<glyph unicode="&#xec;" horiz-adv-x="559" d="M109 985q0 16 1 32.5t3 26.5h266v-1044q-12 -2 -33.5 -3t-34.5 -1q-10 0 -32.5 1t-34.5 3v930h-131q-2 10 -3 24.5t-1 30.5zM31 1481q23 2 47.5 3t48.5 1h46q24 0 46 -4l240 -267q-37 -6 -68 -6q-47 0 -84 6z" />
<glyph unicode="&#xed;" horiz-adv-x="559" d="M109 985q0 16 1 32.5t3 26.5h266v-1044q-12 -2 -33.5 -3t-34.5 -1q-10 0 -32.5 1t-34.5 3v930h-131q-2 10 -3 24.5t-1 30.5zM109 1214l240 267q23 4 46 4h46q25 0 49.5 -1t46.5 -3l-276 -267q-37 -6 -84 -6q-31 0 -68 6z" />
<glyph unicode="&#xee;" horiz-adv-x="559" d="M109 985q0 16 1 32.5t3 26.5h266v-1044q-12 -2 -33.5 -3t-34.5 -1q-10 0 -32.5 1t-34.5 3v930h-131q-2 10 -3 24.5t-1 30.5zM-45 1214l240 265q20 4 43.5 5t44.5 1q20 0 45 -1t45 -5l238 -265q-35 -6 -70 -6q-18 0 -43 1t-45 5l-170 189l-170 -189q-23 -4 -46.5 -5 t-41.5 -1q-37 0 -70 6z" />
<glyph unicode="&#xef;" horiz-adv-x="559" d="M109 985q0 16 1 32.5t3 26.5h266v-1044q-12 -2 -33.5 -3t-34.5 -1q-10 0 -32.5 1t-34.5 3v930h-131q-2 10 -3 24.5t-1 30.5zM-2 1341q0 45 6 89q39 6 82 6t84 -6q6 -43 7 -87q0 -45 -7 -88q-41 -6 -82 -6q-45 0 -84 6q-6 43 -6 86zM389 1341q0 45 7 89q39 6 82 6t84 -6 q6 -43 6 -87q0 -45 -6 -88q-41 -6 -82 -6q-45 0 -84 6q-7 43 -7 86z" />
<glyph unicode="&#xf0;" horiz-adv-x="1204" d="M121 487q0 109 28.5 203t87 163t144.5 107.5t203 38.5q76 0 155.5 -22.5t132.5 -67.5q10 -10 19.5 -20t19.5 -21q-4 16 -9 33t-11 33q-39 111 -89 188.5t-116 130.5l-213 -129q-25 23 -38 47.5t-23 49.5l166 100q-55 29 -117 45t-129 29q-2 10 -2 45q0 14 4 35.5t10 33.5 q207 -23 354 -112l193 114q23 -16 39 -43.5t28 -50.5l-159 -94q137 -125 210.5 -315.5t73.5 -432.5q0 -281 -116.5 -440.5t-364.5 -159.5q-123 0 -213 38t-150.5 105.5t-89 161.5t-28.5 207zM274 487q0 -178 80 -282.5t248 -104.5q170 0 249 104.5t79 282.5q0 193 -80 289 t-248 96q-152 0 -240 -96t-88 -289z" />
<glyph unicode="&#xf1;" horiz-adv-x="1171" d="M180 0v1044q16 2 31.5 3.5t30.5 1.5q16 0 30.5 -1t30.5 -4q4 -37 6 -92t2 -96q20 37 53 75t77 68.5t101.5 50t125.5 19.5q180 0 262 -107.5t82 -302.5v-659q-12 -2 -34 -3t-34 -1q-10 0 -32.5 1t-34.5 3v618q0 174 -54.5 250t-163.5 76q-72 0 -135 -28.5t-109 -83 t-73 -134.5t-27 -182v-516q-12 -2 -33.5 -3t-33.5 -1q-10 0 -33 1t-35 3zM246 1356q31 35 74 63.5t104 28.5q49 0 89 -16.5t77 -36t74 -36t80 -16.5q35 0 63.5 14.5t69.5 51.5q33 -47 49 -98q-31 -33 -75 -60.5t-103 -27.5q-47 0 -87 16t-76 35.5t-73 36t-78 16.5 q-43 0 -71.5 -16.5t-67.5 -48.5q-35 47 -49 94z" />
<glyph unicode="&#xf2;" horiz-adv-x="1175" d="M121 522q0 115 28.5 215.5t87 174t146.5 115.5t205 42t204 -42t145 -115.5t88 -174t30 -215.5t-30 -215t-88 -174t-145 -116t-204 -42t-205 42t-146.5 116t-87 174t-28.5 215zM262 522q0 -199 81 -313.5t245 -114.5t244.5 115t80.5 313q0 199 -80.5 313.5t-244.5 114.5 t-245 -114.5t-81 -313.5zM320 1481q23 2 47.5 3t48.5 1h46q24 0 46 -4l240 -267q-37 -6 -68 -6q-47 0 -84 6z" />
<glyph unicode="&#xf3;" horiz-adv-x="1175" d="M121 522q0 115 28.5 215.5t87 174t146.5 115.5t205 42t204 -42t145 -115.5t88 -174t30 -215.5t-30 -215t-88 -174t-145 -116t-204 -42t-205 42t-146.5 116t-87 174t-28.5 215zM262 522q0 -199 81 -313.5t245 -114.5t244.5 115t80.5 313q0 199 -80.5 313.5t-244.5 114.5 t-245 -114.5t-81 -313.5zM414 1214l240 267q23 4 46 4h46q25 0 49.5 -1t46.5 -3l-276 -267q-37 -6 -84 -6q-31 0 -68 6z" />
<glyph unicode="&#xf4;" horiz-adv-x="1175" d="M121 522q0 115 28.5 215.5t87 174t146.5 115.5t205 42t204 -42t145 -115.5t88 -174t30 -215.5t-30 -215t-88 -174t-145 -116t-204 -42t-205 42t-146.5 116t-87 174t-28.5 215zM262 522q0 -199 81 -313.5t245 -114.5t244.5 115t80.5 313q0 199 -80.5 313.5t-244.5 114.5 t-245 -114.5t-81 -313.5zM260 1214l240 265q20 4 43.5 5t44.5 1q20 0 45 -1t45 -5l238 -265q-35 -6 -70 -6q-18 0 -43 1t-45 5l-170 189l-170 -189q-23 -4 -46.5 -5t-41.5 -1q-37 0 -70 6z" />
<glyph unicode="&#xf5;" horiz-adv-x="1175" d="M121 522q0 115 28.5 215.5t87 174t146.5 115.5t205 42t204 -42t145 -115.5t88 -174t30 -215.5t-30 -215t-88 -174t-145 -116t-204 -42t-205 42t-146.5 116t-87 174t-28.5 215zM262 522q0 -199 81 -313.5t245 -114.5t244.5 115t80.5 313q0 199 -80.5 313.5t-244.5 114.5 t-245 -114.5t-81 -313.5zM248 1356q31 35 74 63.5t104 28.5q49 0 89 -16.5t77 -36t74 -36t80 -16.5q35 0 63.5 14.5t69.5 51.5q33 -47 49 -98q-31 -33 -75 -60.5t-103 -27.5q-47 0 -87 16t-76 35.5t-73 36t-78 16.5q-43 0 -71.5 -16.5t-67.5 -48.5q-35 47 -49 94z" />
<glyph unicode="&#xf6;" horiz-adv-x="1175" d="M121 522q0 115 28.5 215.5t87 174t146.5 115.5t205 42t204 -42t145 -115.5t88 -174t30 -215.5t-30 -215t-88 -174t-145 -116t-204 -42t-205 42t-146.5 116t-87 174t-28.5 215zM262 522q0 -199 81 -313.5t245 -114.5t244.5 115t80.5 313q0 199 -80.5 313.5t-244.5 114.5 t-245 -114.5t-81 -313.5zM303 1341q0 45 6 89q39 6 82 6t84 -6q6 -43 7 -87q0 -45 -7 -88q-41 -6 -82 -6q-45 0 -84 6q-6 43 -6 86zM694 1341q0 45 7 89q39 6 82 6t84 -6q6 -43 6 -87q0 -45 -6 -88q-41 -6 -82 -6q-45 0 -84 6q-7 43 -7 86z" />
<glyph unicode="&#xf7;" d="M174 719q0 16 1 38.5t3 33.5h873q2 -10 3 -33t1 -39t-1 -36.5t-3 -31.5h-873q-2 10 -3 31t-1 37zM485 387q0 49 34 85t85 36q49 0 85 -36t36 -85q0 -51 -36 -85t-85 -34q-51 0 -85 34t-34 85zM485 1059q0 49 34 85t85 36q49 0 85 -36t36 -85q0 -51 -36 -85t-85 -34 q-51 0 -85 34t-34 85z" />
<glyph unicode="&#xf8;" horiz-adv-x="1175" d="M121 522q0 115 28.5 215.5t87 174t146.5 115.5t205 42q94 0 170 -28.5t131 -79.5l65 83q25 6 62 7q33 0 63 -7l-125 -157q100 -147 101 -365q0 -115 -30 -215t-88 -174t-145 -116t-204 -42q-168 0 -279 86l-49 -61q-29 -6 -61 -6q-37 0 -64 6l103 131q-59 74 -88 174 t-29 217zM262 522q0 -176 62 -282l487 620q-41 43 -96.5 66.5t-126.5 23.5q-164 0 -245 -114.5t-81 -313.5zM387 162q76 -68 201 -68q164 0 244.5 115t80.5 313q0 147 -47 252z" />
<glyph unicode="&#xf9;" horiz-adv-x="1177" d="M172 449v595q12 2 34.5 3.5t33.5 1.5q12 0 33.5 -1t33.5 -4v-587q0 -111 22.5 -181.5t66.5 -110.5t107.5 -55.5t143.5 -15.5q68 0 121 7.5t94 19.5v923q12 2 35 3.5t33 1.5q12 0 33.5 -1t33.5 -4v-1017q-76 -20 -169 -36t-191 -16q-96 0 -181 18.5t-147.5 71t-99.5 145 t-37 239.5zM299 1481q23 2 47.5 3t48.5 1h46q24 0 46 -4l240 -267q-37 -6 -68 -6q-47 0 -84 6z" />
<glyph unicode="&#xfa;" horiz-adv-x="1177" d="M172 449v595q12 2 34.5 3.5t33.5 1.5q12 0 33.5 -1t33.5 -4v-587q0 -111 22.5 -181.5t66.5 -110.5t107.5 -55.5t143.5 -15.5q68 0 121 7.5t94 19.5v923q12 2 35 3.5t33 1.5q12 0 33.5 -1t33.5 -4v-1017q-76 -20 -169 -36t-191 -16q-96 0 -181 18.5t-147.5 71t-99.5 145 t-37 239.5zM465 1214l240 267q23 4 46 4h46q25 0 49.5 -1t46.5 -3l-276 -267q-37 -6 -84 -6q-31 0 -68 6z" />
<glyph unicode="&#xfb;" horiz-adv-x="1177" d="M172 449v595q12 2 34.5 3.5t33.5 1.5q12 0 33.5 -1t33.5 -4v-587q0 -111 22.5 -181.5t66.5 -110.5t107.5 -55.5t143.5 -15.5q68 0 121 7.5t94 19.5v923q12 2 35 3.5t33 1.5q12 0 33.5 -1t33.5 -4v-1017q-76 -20 -169 -36t-191 -16q-96 0 -181 18.5t-147.5 71t-99.5 145 t-37 239.5zM260 1214l240 265q20 4 43.5 5t44.5 1q20 0 45 -1t45 -5l238 -265q-35 -6 -70 -6q-18 0 -43 1t-45 5l-170 189l-170 -189q-23 -4 -46.5 -5t-41.5 -1q-37 0 -70 6z" />
<glyph unicode="&#xfc;" horiz-adv-x="1177" d="M172 449v595q12 2 34.5 3.5t33.5 1.5q12 0 33.5 -1t33.5 -4v-587q0 -111 22.5 -181.5t66.5 -110.5t107.5 -55.5t143.5 -15.5q68 0 121 7.5t94 19.5v923q12 2 35 3.5t33 1.5q12 0 33.5 -1t33.5 -4v-1017q-76 -20 -169 -36t-191 -16q-96 0 -181 18.5t-147.5 71t-99.5 145 t-37 239.5zM313 1341q0 45 6 89q39 6 82 6t84 -6q6 -43 7 -87q0 -45 -7 -88q-41 -6 -82 -6q-45 0 -84 6q-6 43 -6 86zM704 1341q0 45 7 89q39 6 82 6t84 -6q6 -43 6 -87q0 -45 -6 -88q-41 -6 -82 -6q-45 0 -84 6q-7 43 -7 86z" />
<glyph unicode="&#xfd;" horiz-adv-x="1054" d="M33 1044q12 2 34.5 3.5t43.5 1.5q16 0 40.5 -1t36.5 -4l347 -1015l339 1015q12 2 33 3.5t37 1.5t36.5 -1t33.5 -4l-459 -1353q-37 -113 -104.5 -158t-159.5 -45q-43 0 -87 8t-73 17q0 63 31 114q16 -6 49 -13t74 -7q59 0 95 28.5t62 106.5l84 254h-39q-18 0 -41.5 1 t-35.5 3zM381 1214l240 267q23 4 46 4h46q25 0 49.5 -1t46.5 -3l-276 -267q-37 -6 -84 -6q-31 0 -68 6z" />
<glyph unicode="&#xfe;" horiz-adv-x="1206" d="M180 -483v1988q12 2 34 3t34 1t33.5 -1t33.5 -3v-604q43 66 124 117t210 51q96 0 176 -29.5t136.5 -93t88 -160t31.5 -231.5t-36.5 -242.5t-107.5 -182.5t-174.5 -115t-236.5 -40q-49 0 -106.5 8.5t-104.5 24.5v-491q-12 -2 -34.5 -3t-32.5 -1q-12 0 -34 1t-34 3z M315 133q47 -18 97.5 -27.5t134.5 -9.5q80 0 151.5 25.5t125 81t84 140.5t30.5 204q0 188 -70.5 294.5t-228.5 106.5q-49 0 -106.5 -16.5t-105.5 -56t-80 -104t-32 -163.5v-475z" />
<glyph unicode="&#xff;" horiz-adv-x="1054" d="M33 1044q12 2 34.5 3.5t43.5 1.5q16 0 40.5 -1t36.5 -4l347 -1015l339 1015q12 2 33 3.5t37 1.5t36.5 -1t33.5 -4l-459 -1353q-37 -113 -104.5 -158t-159.5 -45q-43 0 -87 8t-73 17q0 63 31 114q16 -6 49 -13t74 -7q59 0 95 28.5t62 106.5l84 254h-39q-18 0 -41.5 1 t-35.5 3zM241 1341q0 45 6 89q39 6 82 6t84 -6q6 -43 7 -87q0 -45 -7 -88q-41 -6 -82 -6q-45 0 -84 6q-6 43 -6 86zM632 1341q0 45 7 89q39 6 82 6t84 -6q6 -43 6 -87q0 -45 -6 -88q-41 -6 -82 -6q-45 0 -84 6q-7 43 -7 86z" />
<glyph unicode="&#x131;" horiz-adv-x="559" d="M109 985q0 16 1 32.5t3 26.5h266v-1044q-12 -2 -33.5 -3t-34.5 -1q-10 0 -32.5 1t-34.5 3v930h-131q-2 10 -3 24.5t-1 30.5z" />
<glyph unicode="&#x152;" horiz-adv-x="1873" d="M125 737q0 166 40 305.5t118.5 240.5t195.5 157.5t271 56.5q63 0 127.5 -5t119.5 -19h766q2 -12 3 -30t1 -34q0 -14 -1 -33.5t-3 -32.5h-647v-497h520q2 -12 3 -29.5t1 -34.5q0 -14 -1 -33.5t-3 -31.5h-520v-588h666q2 -12 3 -29.5t1 -33.5q0 -14 -1 -34t-3 -32h-776 q-57 -12 -130 -18.5t-137 -6.5q-154 0 -269.5 56.5t-192 158t-114.5 241.5t-38 306zM272 737q0 -139 29 -255.5t87 -200.5t145.5 -130.5t205.5 -46.5q63 0 123 4.5t113 20.5v1214q-53 14 -107.5 19.5t-117.5 5.5q-119 0 -208 -46t-149.5 -129t-90.5 -200t-30 -256z" />
<glyph unicode="&#x153;" horiz-adv-x="1923" d="M123 522q0 115 28.5 215.5t87 174t146.5 115.5t205 42q141 0 241.5 -64.5t153.5 -177.5q51 113 148.5 177.5t246.5 64.5q102 0 182 -38t134.5 -102.5t82 -150.5t27.5 -180q0 -18 -1 -47t-3 -49h-745q0 -209 96 -307.5t289 -98.5q78 0 144.5 13.5t129.5 35.5 q10 -23 16.5 -55.5t8.5 -58.5q-59 -27 -139 -41.5t-175 -14.5q-168 0 -280.5 65.5t-165.5 188.5q-55 -117 -152.5 -185.5t-238.5 -68.5q-117 0 -205 42t-146.5 116t-87 174t-28.5 215zM264 522q0 -199 81 -313.5t245 -114.5t244.5 115t80.5 313q0 199 -80.5 313.5 t-244.5 114.5t-245 -114.5t-81 -313.5zM1061 614h610q0 72 -16.5 133.5t-51 105.5t-90 69.5t-133.5 25.5q-143 0 -223 -87t-96 -247z" />
<glyph unicode="&#x178;" horiz-adv-x="1175" d="M49 1473q12 2 34.5 3t43.5 1q18 0 44 -1t40 -3l385 -779l379 779q16 2 35.5 3t38.5 1q20 0 42.5 -1t34.5 -3l-462 -926v-547q-14 -2 -33 -3t-37 -1q-20 0 -39.5 1t-32.5 3v547zM287 1704q0 45 6 92q45 6 88 6q49 0 90 -6q6 -47 6 -90q0 -47 -6 -92q-41 -6 -88 -6 q-45 0 -90 6q-6 45 -6 90zM715 1704q0 45 6 92q39 6 88 6q43 0 90 -6q6 -47 6 -90q0 -47 -6 -92q-47 -6 -88 -6q-51 0 -90 6q-6 45 -6 90z" />
<glyph unicode="&#x2c6;" horiz-adv-x="1019" d="M182 1214l240 265q20 4 43.5 5t44.5 1q20 0 45 -1t45 -5l238 -265q-35 -6 -70 -6q-18 0 -43 1t-45 5l-170 189l-170 -189q-23 -4 -46.5 -5t-41.5 -1q-37 0 -70 6z" />
<glyph unicode="&#x2da;" horiz-adv-x="1032" d="M309 1415q0 88 56.5 148.5t150.5 60.5q96 0 152.5 -60.5t56.5 -148.5q0 -86 -55.5 -146.5t-153.5 -60.5q-96 0 -151.5 60.5t-55.5 146.5zM412 1415q0 -53 24.5 -85t79.5 -32q57 0 82 32t25 85t-25 86t-82 33q-55 0 -79.5 -33t-24.5 -86z" />
<glyph unicode="&#x2dc;" horiz-adv-x="1024" d="M172 1356q31 35 74 63.5t104 28.5q49 0 89 -16.5t77 -36t74 -36t80 -16.5q35 0 63.5 14.5t69.5 51.5q33 -47 49 -98q-31 -33 -75 -60.5t-103 -27.5q-47 0 -87 16t-76 35.5t-73 36t-78 16.5q-43 0 -71.5 -16.5t-67.5 -48.5q-35 47 -49 94z" />
<glyph unicode="&#x2000;" horiz-adv-x="958" />
<glyph unicode="&#x2001;" horiz-adv-x="1916" />
<glyph unicode="&#x2002;" horiz-adv-x="958" />
<glyph unicode="&#x2003;" horiz-adv-x="1916" />
<glyph unicode="&#x2004;" horiz-adv-x="638" />
<glyph unicode="&#x2005;" horiz-adv-x="479" />
<glyph unicode="&#x2006;" horiz-adv-x="319" />
<glyph unicode="&#x2007;" horiz-adv-x="319" />
<glyph unicode="&#x2008;" horiz-adv-x="239" />
<glyph unicode="&#x2009;" horiz-adv-x="382" />
<glyph unicode="&#x200a;" horiz-adv-x="106" />
<glyph unicode="&#x2010;" horiz-adv-x="722" d="M88 582q0 16 1 37.5t3 31.5h539q2 -10 3 -31.5t1 -37.5t-1 -37t-3 -31h-539q-2 10 -3 31t-1 37z" />
<glyph unicode="&#x2011;" horiz-adv-x="722" d="M88 582q0 16 1 37.5t3 31.5h539q2 -10 3 -31.5t1 -37.5t-1 -37t-3 -31h-539q-2 10 -3 31t-1 37z" />
<glyph unicode="&#x2012;" horiz-adv-x="722" d="M88 582q0 16 1 37.5t3 31.5h539q2 -10 3 -31.5t1 -37.5t-1 -37t-3 -31h-539q-2 10 -3 31t-1 37z" />
<glyph unicode="&#x2013;" horiz-adv-x="1024" d="M-4 584q0 18 1 35.5t3 31.5h1024q2 -14 3 -31.5t1 -35.5q0 -20 -1 -39t-3 -31h-1024q-2 14 -3 34t-1 36z" />
<glyph unicode="&#x2014;" horiz-adv-x="2048" d="M-4 584q0 18 1 35.5t3 31.5h2048q2 -14 3 -31.5t1 -35.5q0 -20 -1 -39t-3 -31h-2048q-2 14 -3 34t-1 36z" />
<glyph unicode="&#x2018;" horiz-adv-x="456" d="M102 1473q18 2 37 3t35 1t34.5 -1t35.5 -3l110 -406q-16 -4 -33 -4h-36h-34q-17 0 -38 4z" />
<glyph unicode="&#x2019;" horiz-adv-x="456" d="M102 1067l111 406q18 2 35.5 3t34.5 1q16 0 34.5 -1t36.5 -3l-110 -406q-20 -4 -38 -4h-34h-36q-18 0 -34 4z" />
<glyph unicode="&#x201a;" horiz-adv-x="456" d="M102 -231l111 405q16 2 34.5 3t35.5 1q16 0 34.5 -1t36.5 -3l-110 -405q-20 -4 -38 -5h-34h-36q-18 1 -34 5z" />
<glyph unicode="&#x201c;" horiz-adv-x="829" d="M355.008 1067l-110.986 405q-15.998 2 -34.4961 3t-35.4961 1q-15.998 0 -34.4951 -1q-18.498 -1 -36.4961 -3l109.986 -405q19.998 -4 37.9961 -5h33.9951h35.9961q17.998 1 33.9961 5zM727.008 1067l-110.986 405q-15.998 2 -34.4961 3t-35.4961 1 q-15.998 0 -34.4951 -1q-18.498 -1 -36.4961 -3l109.986 -405q19.998 -4 37.9961 -5h33.9951h35.9961q17.998 1 33.9961 5z" />
<glyph unicode="&#x201d;" horiz-adv-x="829" d="M102 1067l111 405q16 2 34.5 3t35.5 1q16 0 34.5 -1t36.5 -3l-110 -405q-20 -4 -38 -5h-34h-36q-18 1 -34 5zM475 1067l111 405q16 2 34.5 3t35.5 1q16 0 34.5 -1t36.5 -3l-110 -405q-20 -4 -38 -5h-34h-36q-18 1 -34 5z" />
<glyph unicode="&#x201e;" horiz-adv-x="829" d="M102 -231l111 405q16 2 34.5 3t35.5 1q16 0 34.5 -1t36.5 -3l-110 -405q-20 -4 -38 -5h-34h-36q-18 1 -34 5zM475 -231l111 405q16 2 34.5 3t35.5 1q16 0 34.5 -1t36.5 -3l-110 -405q-20 -4 -38 -5h-34h-36q-18 1 -34 5z" />
<glyph unicode="&#x2022;" horiz-adv-x="768" d="M154 778q0 47 18 89t49 73t73 49.5t91 18.5q47 0 89 -18.5t73 -49.5t49 -73t18 -89q0 -49 -18 -91t-49 -72.5t-73 -49t-89 -18.5q-49 0 -91 18.5t-73 49t-49 72.5t-18 91z" />
<glyph unicode="&#x2026;" horiz-adv-x="1353" d="M117 86q0 45 6 88q43 6 86 6q45 0 88 -6q6 -43 6 -86q0 -45 -6 -88q-43 -6 -86 -6q-45 0 -88 6q-6 43 -6 86zM584 86q0 45 6 88q43 6 86 6q45 0 88 -6q6 -43 6 -86q0 -45 -6 -88q-43 -6 -86 -6q-45 0 -88 6q-6 43 -6 86zM1051 86q0 45 6 88q43 6 86 6q45 0 88 -6 q6 -43 6 -86q0 -45 -6 -88q-43 -6 -86 -6q-45 0 -88 6q-6 43 -6 86z" />
<glyph unicode="&#x202f;" horiz-adv-x="382" />
<glyph unicode="&#x2039;" horiz-adv-x="735" d="M113 547l358 452q37 6 76 7q39 0 80 -7l-351 -448l351 -457q-37 -6 -76 -6q-41 0 -80 6z" />
<glyph unicode="&#x203a;" horiz-adv-x="735" d="M109 94l350 449l-350 456q37 6 75 7q39 0 80 -7l359 -452l-359 -453q-37 -6 -76 -6q-40 0 -79 6z" />
<glyph unicode="&#x2044;" horiz-adv-x="450" d="M-348 0l991 1448q16 2 33.5 3t34.5 1q20 0 39.5 -1t40.5 -3l-990 -1448q-20 -4 -39 -4h-36h-38q-20 0 -36 4z" />
<glyph unicode="&#x205f;" horiz-adv-x="479" />
<glyph unicode="&#x2070;" horiz-adv-x="921" d="M86 1038q0 92 23.5 171t69.5 137.5t117 92.5t167 34q94 0 164.5 -34t117 -92.5t70 -137.5t23.5 -171t-23.5 -172t-70 -138t-118 -91t-165.5 -33t-165 33t-117 91t-69.5 138t-23.5 172zM229 1038q0 -154 54.5 -235.5t177.5 -81.5q119 0 176 82t57 235q0 154 -54 236 t-177 82q-119 0 -176.5 -82t-57.5 -236z" />
<glyph unicode="&#x2074;" horiz-adv-x="921" d="M113 813l342 664q59 -10 116 -37l-272 -529h260v176q31 6 59 7q27 0 62 -7v-176h106q6 -23 7 -57q0 -16 -1 -31.5t-6 -25.5h-106v-168q-16 -2 -28.5 -3t-24.5 -1q-16 0 -32.5 1t-35.5 3v168h-434z" />
<glyph unicode="&#x20ac;" d="M49 561q0 35 8 62h142q-2 20 -2 42v44q0 31 1 61.5t3 58.5h-144q-8 25 -8 58q0 35 8 61h160q47 256 201.5 390.5t408.5 134.5q129 0 215 -18.5t125 -31.5q-4 -37 -11 -61.5t-21 -58.5q-63 25 -145.5 35t-160.5 10q-190 0 -303.5 -102.5t-154.5 -297.5h596q6 -29 6 -55 q0 -33 -6 -64h-615q-2 -29 -3 -59.5t-1 -60.5v-44q0 -22 2 -42h617q6 -29 6 -56q0 -33 -6 -63h-600q41 -211 164.5 -306.5t310.5 -95.5q96 0 175 18.5t132 47.5q16 -31 28.5 -59.5t18.5 -59.5q-70 -35 -166 -54.5t-203 -19.5q-256 0 -413.5 133.5t-200.5 395.5h-156 q-8 24 -8 57z" />
<glyph unicode="&#x2122;" horiz-adv-x="1730" d="M63 1389q0 16 1.5 29.5t5.5 29.5h630q4 -16 5.5 -28.5t1.5 -28.5q0 -27 -7 -58h-256v-704q-16 -4 -29.5 -5t-29.5 -1h-30q-15 0 -29 4v706h-256q-4 16 -5.5 28t-1.5 28zM799 627l39 821q16 2 31.5 3t31.5 1q18 0 36.5 -1t35.5 -3l239 -492l238 492q16 2 32.5 3t33.5 1 q18 0 35.5 -1t33.5 -3l37 -819q-16 -4 -28.5 -5t-28.5 -1h-30q-15 0 -30 4l-32 602l-224 -441q-12 -2 -22 -3t-21 -1q-10 0 -20 1t-23 3l-215 439l-28 -598q-16 -4 -29.5 -5t-30.5 -1h-30q-15 0 -31 4z" />
<glyph unicode="&#x2212;" d="M174 719q0 16 1 38.5t3 33.5h873q2 -10 3 -33t1 -39t-1 -36.5t-3 -31.5h-873q-2 10 -3 31t-1 37z" />
<glyph unicode="&#xe000;" horiz-adv-x="1050" d="M0 1050h1050v-1050h-1050v1050z" />
<glyph unicode="&#xfb01;" horiz-adv-x="1189" d="M72 985q0 16 1 32.5t3 26.5h178v93q0 193 101.5 289t299.5 96q33 0 60.5 -2t57.5 -6.5t62.5 -12.5t75.5 -22q0 -31 -11 -60.5t-23 -56.5q-29 10 -52.5 18.5t-48 13.5t-51.5 8t-63 3q-66 0 -117 -11.5t-86 -42t-52.5 -84t-17.5 -137.5v-86h621v-1044q-12 -2 -34 -3t-34 -1 q-10 0 -32.5 1t-35.5 3v930h-485v-930q-12 -2 -33.5 -3t-33.5 -1q-10 0 -33 1t-35 3v930h-178q-2 10 -3 24.5t-1 30.5z" />
<glyph unicode="&#xfb02;" horiz-adv-x="1226" d="M72 985q0 16 1 32.5t3 26.5h178v93q0 193 100.5 289t311.5 96q98 0 179 -13.5t126 -23.5v-1243q0 -53 12 -83t30.5 -43.5t41 -16.5t41.5 -3q23 0 47 3t41 7q10 -25 14 -53t6 -53q-29 -10 -64.5 -14t-66.5 -4q-43 0 -86 9t-76.5 34.5t-54 69.5t-20.5 116v1180 q-37 8 -84 12t-93 4q-66 0 -116.5 -11.5t-84.5 -42t-51.5 -85t-17.5 -138.5v-86h266q2 -10 3 -26.5t1 -32.5t-1 -30.5t-3 -24.5h-266v-930q-12 -2 -33.5 -3t-33.5 -1q-10 0 -33 1t-35 3v930h-178q-2 10 -3 24.5t-1 30.5z" />
<glyph unicode="&#xfb03;" horiz-adv-x="1816" d="M72 985q0 16 1 32.5t3 26.5h178v82q0 193 85 289t269 96q43 0 83 -7t65 -13q-4 -39 -13.5 -64.5t-19.5 -50.5q-18 4 -48 10.5t-65 6.5q-53 0 -94 -11.5t-68.5 -41t-43 -83t-15.5 -137.5v-76h492v93q0 193 101 289t300 96q33 0 60.5 -2t57.5 -6.5t62.5 -12.5t75.5 -22 q0 -31 -11 -60.5t-24 -56.5q-29 10 -52.5 18.5t-48 13.5t-51 8t-63.5 3q-66 0 -117 -11.5t-85.5 -42t-52 -84t-17.5 -137.5v-86h620v-1044q-12 -2 -33.5 -3t-33.5 -1q-10 0 -33 1t-35 3v930h-485v-930q-12 -2 -33.5 -3t-34.5 -1q-10 0 -32.5 1t-34.5 3v930h-492v-930 q-12 -2 -33.5 -3t-33.5 -1q-10 0 -33 1t-35 3v930h-178q-2 10 -3 24.5t-1 30.5z" />
<glyph unicode="&#xfb04;" horiz-adv-x="1853" d="M72 985q0 16 1 32.5t3 26.5h178v82q0 193 85 289t269 96q43 0 83 -7t65 -13q-4 -39 -13.5 -64.5t-19.5 -50.5q-18 4 -48 10.5t-65 6.5q-53 0 -94 -11.5t-68.5 -41t-43 -83t-15.5 -137.5v-76h492v93q0 193 100 289t311 96q98 0 179 -13.5t126 -23.5v-1243q0 -53 12.5 -83 t31 -43.5t41 -16.5t40.5 -3q23 0 47.5 3t40.5 7q10 -25 14.5 -53t6.5 -53q-29 -10 -64.5 -14t-66.5 -4q-43 0 -86 9t-77 34.5t-54.5 69.5t-20.5 116v1180q-37 8 -84 12t-92 4q-66 0 -117 -11.5t-84.5 -42t-51 -85t-17.5 -138.5v-86h266q2 -10 3 -26.5t1 -32.5t-1 -30.5 t-3 -24.5h-266v-930q-12 -2 -33.5 -3t-34.5 -1q-10 0 -32.5 1t-34.5 3v930h-492v-930q-12 -2 -33.5 -3t-33.5 -1q-10 0 -33 1t-35 3v930h-178q-2 10 -3 24.5t-1 30.5z" />
<glyph horiz-adv-x="1024" d="M152 1753q31 33 80 64.5t108 31.5q45 0 91 -18.5t90 -40t86 -38.5t83 -17t68.5 17t64.5 52q16 -23 28.5 -46t22.5 -48q-33 -31 -81 -60.5t-109 -29.5q-45 0 -89 17.5t-88 38t-85 38t-80 17.5q-47 0 -75.5 -18.5t-63.5 -49.5q-35 41 -51 90z" />
<glyph horiz-adv-x="1024" d="M203 1704q0 45 6 92q45 6 88 6q49 0 90 -6q6 -47 6 -90q0 -47 -6 -92q-41 -6 -88 -6q-45 0 -90 6q-6 45 -6 90zM631 1704q0 45 6 92q39 6 88 6q43 0 90 -6q6 -47 6 -90q0 -47 -6 -92q-47 -6 -88 -6q-51 0 -90 6q-6 45 -6 90z" />
<glyph horiz-adv-x="1019" d="M178 1593l258 228q37 6 76 6q35 0 76 -6l252 -228q-18 -4 -40 -5t-38 -1t-40 1t-48 5l-162 144l-164 -144q-49 -6 -88 -6q-16 0 -39 1t-43 5z" />
<glyph horiz-adv-x="1024" d="M299 1593l227 228q45 6 97 6q53 0 100 -6l-264 -228q-37 -6 -88 -6q-35 0 -72 6z" />
<glyph horiz-adv-x="1024" d="M299 1821q45 6 100 6q49 0 97 -6l227 -228q-37 -6 -72 -6q-51 0 -88 6z" />
</font>
</defs>
</svg>
