<?xml version="1.0" standalone="no"?>
<!DOCTYPE svg PUBLIC "-//W3C//DTD SVG 1.1//EN" "http://www.w3.org/Graphics/SVG/1.1/DTD/svg11.dtd" >
<svg>
<metadata>
Created by FontForge 20090914 at Mon Aug 22 11:42:52 2016
 By www-data
HTF Gotham  Copr. 2000 The Hoefler Type Foundry, Inc. Info: www.typography.com
</metadata>
<defs>
<font id="GothamBold" horiz-adv-x="500" >
  <font-face 
    font-family="Gotham Bold"
    font-weight="700"
    font-stretch="normal"
    units-per-em="1000"
    panose-1="2 0 8 3 3 0 0 2 0 4"
    ascent="800"
    descent="-200"
    x-height="535.999"
    cap-height="700"
    bbox="-71 -173 1195 932"
    underline-thickness="20"
    underline-position="-113"
    unicode-range="U+0020-U+FB02"
  />
<missing-glyph 
 />
    <glyph glyph-name="fi" unicode="fi" horiz-adv-x="684" 
d="M457 536h152v-536h-152v536zM94 406l-63 0.000976562v125h63v34c0 58 14.333 101.333 43 130c28 28 69 42 123 42c24 0 44.5 -1.33301 61.5 -4s32.5 -6.33398 46.5 -11.001v-126c-11.333 4 -22.333 7.16699 -33 9.5s-22.667 3.5 -36 3.5c-36.667 0 -55 -19.333 -55 -58
v-21h123v-124h-121v-406h-152v406zM453 730.001h160v-135h-160v135z" />
    <glyph glyph-name="fl" unicode="fl" horiz-adv-x="684" 
d="M457 730h152v-730h-152v730zM94 406l-63 0.000976562v125h63v34c0 58 14.333 101.333 43 130c28 28 69 42 123 42c24 0 44.5 -1.33301 61.5 -4s32.5 -6.33398 46.5 -11.001v-126c-11.333 4 -22.333 7.16699 -33 9.5s-22.667 3.5 -36 3.5c-36.667 0 -55 -19.333 -55 -58
v-21h123v-124h-121v-406h-152v406z" />
    <glyph glyph-name=".notdef" 
 />
    <glyph glyph-name="space" unicode=" " horiz-adv-x="300" 
 />
    <glyph glyph-name="exclam" unicode="!" horiz-adv-x="324" 
d="M81 160h162v-160h-162v160zM73 680v20h178v-20l-47 -442h-84z" />
    <glyph glyph-name="quotedbl" unicode="&#x22;" horiz-adv-x="520" 
d="M75 700h168v-5l-109 -314h-77zM311 700h168v-5l-109 -314h-77z" />
    <glyph glyph-name="numbersign" unicode="#" horiz-adv-x="700" 
d="M410 278l25 148h-145l-25 -148h145zM111 150h-76v128h98l25 148h-88v128h110l25 146h132l-25 -146h145l25 146h132l-25 -146h76v-128h-98l-25 -148h88v-128h-110l-26 -150h-132l26 150h-145l-26 -150h-132z" />
    <glyph glyph-name="dollar" unicode="$" horiz-adv-x="646" 
d="M379 126c47.333 7.33301 71 28.667 71 64v2c0 17.333 -5 31.5 -15 42.5s-28.667 21.5 -56 31.5v-140zM285 575.001c-24 -3.33301 -41.499 -10.5 -52.499 -21.5s-16.5 -24.5 -16.5 -40.5v-2c0 -15.333 4.66699 -28.5 14 -39.5s27.666 -21.5 54.999 -31.5v135z
M280.001 3.00098c-43.333 5.33301 -85.168 16.1719 -125.501 32.5049s-77.166 37.166 -110.499 62.499l78 114c27.333 -20.667 53.833 -37.834 79.5 -51.501s53.5 -23.5 83.5 -29.5v159c-36 10 -67.5 21 -94.5 33s-49.333 26.333 -67 43s-31 36.167 -40 58.5
s-13.5 48.166 -13.5 77.499v2c0 28 5 53.333 15 76s24.167 42.334 42.5 59.001s40.5 30.167 66.5 40.5s54.667 17.166 86 20.499v58h104v-60c36 -5.33301 69.167 -14.166 99.5 -26.499s59.166 -28.166 86.499 -47.499l-67 -117c-20 13.333 -40.333 25.166 -61 35.499
s-41.667 18.166 -63 23.499v-151c76 -20.667 131.167 -47.667 165.5 -81s51.5 -78 51.5 -134v-2c0 -28 -5.16699 -53.333 -15.5 -76s-24.666 -42.334 -42.999 -59.001s-40.5 -30.334 -66.5 -41.001s-55 -17.667 -87 -21v-99h-104v101z" />
    <glyph glyph-name="percent" unicode="%" horiz-adv-x="860" 
d="M646 83c21.333 0 37.333 8.66699 48 26s16 37.333 16 60v2c0 23.333 -6 43.833 -18 61.5s-28 26.5 -48 26.5c-21.333 0 -37.333 -8.5 -48 -25.5s-16 -37.167 -16 -60.5v-2c0 -23.333 6 -43.833 18 -61.5s28 -26.5 48 -26.5zM216 441c21.333 0 37.333 8.66699 48 26
s16 37.333 16 60v2c0 23.333 -6 43.833 -18 61.5s-28 26.5 -48 26.5c-21.333 0 -37.333 -8.5 -48 -25.5s-16 -37.167 -16 -60.5v-2c0 -23.333 6 -43.833 18 -61.5s28 -26.5 48 -26.5zM644 -8c-25.333 0 -48.333 4.66699 -69 14s-38.5 22 -53.5 38s-26.5 34.667 -34.5 56
s-12 44.333 -12 69v2c0 24.667 4.16699 47.834 12.5 69.501s20 40.667 35 57s33 29.166 54 38.499s44.167 14 69.5 14s48.333 -4.66699 69 -14s38.5 -22 53.5 -38s26.5 -34.667 34.5 -56s12 -44.333 12 -69v-2c0 -24.667 -4.16699 -47.834 -12.5 -69.501
s-20 -40.667 -35 -57s-33 -29.166 -54 -38.499s-44.167 -14 -69.5 -14zM626 700h119l-511 -700h-119zM214 350c-25.333 0 -48.333 4.66699 -69 14s-38.5 22 -53.5 38s-26.5 34.667 -34.5 56s-12 44.333 -12 69v2c0 24.667 4.16699 47.834 12.5 69.501s20 40.667 35 57
s33 29.166 54 38.499s44.167 14 69.5 14s48.333 -4.66699 69 -14s38.5 -22 53.5 -38s26.5 -34.667 34.5 -56s12 -44.333 12 -69v-2c0 -24.667 -4.16699 -47.834 -12.5 -69.501s-20 -40.667 -35 -57s-33 -29.166 -54 -38.499s-44.167 -14 -69.5 -14z" />
    <glyph glyph-name="ampersand" unicode="&#x26;" horiz-adv-x="696" 
d="M287 116c17.333 0 34.5 3.5 51.5 10.5s33.5 16.833 49.5 29.5l-134 136c-23.333 -12 -40 -26 -50 -42s-15 -32.667 -15 -50v-2c0 -24.667 9.16699 -44.5 27.5 -59.5s41.833 -22.5 70.5 -22.5zM303 432c30.667 11.333 53.832 24.167 69.499 38.5s23.5 32.5 23.5 54.5v2
c0 20 -6.16699 35.833 -18.5 47.5s-28.166 17.5 -47.499 17.5c-20.667 0 -37.167 -6.5 -49.5 -19.5s-18.5 -30.167 -18.5 -51.5v-2c0 -15.333 3.16699 -29.5 9.5 -42.5s16.833 -27.833 31.5 -44.5zM473.998 68.001c-28.667 -23.333 -59.832 -42.1699 -93.499 -56.5029
s-70.834 -21.5 -111.501 -21.5c-33.333 0 -64.333 4.66699 -93 14s-53.5 22.833 -74.5 40.5s-37.5 38.834 -49.5 63.501s-18 52.667 -18 84v2c0 44.667 11.667 82.834 35 114.501s57 57.5 101 77.5c-17.333 24 -29.833 47.333 -37.5 70s-11.5 46 -11.5 70v2
c0 24 4.66699 47 14 69s23 41.5 41 58.5s40.167 30.667 66.5 41s56.5 15.5 90.5 15.5c30 0 57 -4.5 81 -13.5s44.667 -21.5 62 -37.5s30.666 -34.667 39.999 -56s14 -44.333 14 -69v-2c0 -23.333 -3.5 -44.5 -10.5 -63.5s-17 -35.833 -30 -50.5s-28.5 -27.667 -46.5 -39
s-38 -21.333 -60 -30l93 -93c11.333 18 22.666 37.167 33.999 57.5l34 62.5l113 -62c-13.333 -24.667 -27.666 -49.667 -42.999 -75s-31.666 -49.666 -48.999 -72.999l103 -103l-113 -79z" />
    <glyph glyph-name="quotesingle" unicode="'" horiz-adv-x="286" 
d="M75 700h170v-5l-109 -314h-79z" />
    <glyph glyph-name="parenleft" unicode="(" horiz-adv-x="445" 
d="M336 -141c-92.667 50 -162 109.667 -208 179s-69 152.333 -69 249s23 179.667 69 249s115.333 129 208 179l67 -101c-34 -23.333 -63.167 -47 -87.5 -71s-44.333 -49 -60 -75s-27.167 -53.833 -34.5 -83.5s-11 -62.167 -11 -97.5s3.66699 -67.833 11 -97.5
s18.833 -57.5 34.5 -83.5s35.667 -51 60 -75s53.5 -47.667 87.5 -71z" />
    <glyph glyph-name="parenright" unicode=")" horiz-adv-x="445" 
d="M42 -40c34 23.333 63.167 47 87.5 71s44.333 49 60 75s27.167 53.833 34.5 83.5s11 62.167 11 97.5s-3.66699 67.833 -11 97.5s-18.833 57.5 -34.5 83.5s-35.667 51 -60 75s-53.5 47.667 -87.5 71l67 101c92.667 -50 162 -109.667 208 -179s69 -152.333 69 -249
s-23 -179.667 -69 -249s-115.333 -129 -208 -179z" />
    <glyph glyph-name="asterisk" unicode="*" horiz-adv-x="430" 
d="M190 492l-97 -74l-42 72l112 47l-112 47l42 72l97 -74l-16 120h82l-16 -120l97 74l42 -72l-112 -47l112 -47l-42 -72l-97 74l16 -120h-82z" />
    <glyph glyph-name="plus" unicode="+" horiz-adv-x="640" 
d="M249 283h-181v138h181v180h142v-180h181v-138h-181v-180h-142v180z" />
    <glyph glyph-name="comma" unicode="," horiz-adv-x="286" 
d="M26 -99c70.667 7.33301 103.333 40.333 98 99h-62v160h162v-135c0 -66 -16 -113.5 -48 -142.5s-77.667 -43.833 -137 -44.5z" />
    <glyph glyph-name="hyphen" unicode="-" horiz-adv-x="408" 
d="M50 383h308v-146h-308v146z" />
    <glyph glyph-name="hyphen" unicode="&#xad;" horiz-adv-x="408" 
d="M50 383h308v-146h-308v146z" />
    <glyph glyph-name="period" unicode="." horiz-adv-x="286" 
d="M62 160h162v-160h-162v160z" />
    <glyph glyph-name="slash" unicode="/" horiz-adv-x="530" 
d="M415 798h129l-443 -926h-129z" />
    <glyph glyph-name="zero" unicode="0" horiz-adv-x="730" 
d="M366 127c23.333 0 44.334 5.5 63.001 16.5s34.667 26.333 48 46s23.5 43 30.5 70s10.5 56.5 10.5 88.5v2c0 32 -3.66699 61.5 -11 88.5s-17.833 50.5 -31.5 70.5s-30 35.667 -49 47s-39.833 17 -62.5 17c-23.333 0 -44.333 -5.5 -63 -16.5s-34.5 -26.333 -47.5 -46
s-23.167 -43 -30.5 -70s-11 -56.5 -11 -88.5v-2c0 -32 3.66699 -61.667 11 -89s17.666 -50.833 30.999 -70.5s29.5 -35.167 48.5 -46.5s40.167 -17 63.5 -17zM364.001 -12c-46.667 0 -89.167 9.16699 -127.5 27.5s-71 43.666 -98 75.999s-47.833 70.5 -62.5 114.5
s-22 91.333 -22 142v2c0 50.667 7.5 98 22.5 142s36.167 82.333 63.5 115s60.166 58.334 98.499 77.001s80.833 28 127.5 28c46 0 88.167 -9.16699 126.5 -27.5s71 -43.666 98 -75.999s48 -70.5 63 -114.5s22.5 -91.333 22.5 -142v-2c0 -50.667 -7.5 -98 -22.5 -142
s-36.167 -82.333 -63.5 -115s-60.166 -58.334 -98.499 -77.001s-80.833 -28 -127.5 -28z" />
    <glyph glyph-name="one" unicode="1" horiz-adv-x="422" 
d="M178 549l-122 -30l-32 126l201 60h105v-705h-152v549z" />
    <glyph glyph-name="two" unicode="2" horiz-adv-x="623" 
d="M49 122l233 191.002c22 18 40.667 34.167 56 48.5s27.833 28 37.5 41s16.667 25.667 21 38s6.5 25.833 6.5 40.5c0 30 -8.66699 52.667 -26 68s-40 23 -68 23c-27.333 0 -51.5 -7.66699 -72.5 -23s-44.5 -39 -70.5 -71l-108 87c17.333 23.333 34.833 44 52.5 62
s36.667 33.167 57 45.5s42.833 21.666 67.5 27.999s52.667 9.5 84 9.5c36 0 68.833 -5.16699 98.5 -15.5s55 -24.833 76 -43.5s37.333 -41.334 49 -68.001s17.5 -56.334 17.5 -89.001v-2c0 -29.333 -3.83301 -55.5 -11.5 -78.5s-19 -44.667 -34 -65
s-34.167 -40.666 -57.5 -60.999s-50.333 -42.5 -81 -66.5l-114 -88h305v-133h-518v122z" />
    <glyph glyph-name="three" unicode="3" horiz-adv-x="621" 
d="M311 -12c-63.333 0 -117.166 11.167 -161.499 33.5s-81.5 51.5 -111.5 87.5l106 101c24 -27.333 49.167 -48.166 75.5 -62.499s57.5 -21.5 93.5 -21.5c29.333 0 53.166 7.66699 71.499 23s27.5 36 27.5 62v2c0 28.667 -12 50.667 -36 66s-57.667 23 -101 23h-64l-24 98
l167 168h-275v132h473v-116l-177 -169c24 -4 47.167 -10.333 69.5 -19s42.333 -20.667 60 -36s31.834 -34.5 42.501 -57.5s16 -50.833 16 -83.5v-2c0 -33.333 -5.83301 -63.833 -17.5 -91.5s-28.334 -51.834 -50.001 -72.501s-48.167 -36.667 -79.5 -48
s-66.333 -17 -105 -17z" />
    <glyph glyph-name="four" unicode="4" horiz-adv-x="689" 
d="M398 276v218l-186 -218h186zM398 151h-342l-25 109l384 445h130v-429h94v-125h-94v-151h-147v151z" />
    <glyph glyph-name="five" unicode="5" horiz-adv-x="630" 
d="M305 -12c-56.667 0 -106 9.33203 -148 27.999s-80 44.334 -114 77.001l93 111c26.667 -24 53.334 -42.667 80.001 -56s55.667 -20 87 -20c36 0 64.5 8.33301 85.5 25s31.5 40.667 31.5 72v2c0 30 -11.5 53.333 -34.5 70s-52.833 25 -89.5 25
c-22 0 -42.833 -2.5 -62.5 -7.5s-37.834 -11.167 -54.501 -18.5l-89 59l20 345h430v-135h-298l-8 -121c14 3.33301 28 6.16602 42 8.49902s30.667 3.5 50 3.5c34 0 65.833 -4.33301 95.5 -13s55.667 -22 78 -40s39.833 -41.167 52.5 -69.5s19 -62.166 19 -101.499v-2
c0 -37.333 -6.33301 -70.833 -19 -100.5s-30.5 -55 -53.5 -76s-51 -37.167 -84 -48.5s-69.5 -17 -109.5 -17z" />
    <glyph glyph-name="six" unicode="6" horiz-adv-x="662" 
d="M333 120c38 0 67.5 9.66699 88.5 29s31.5 44 31.5 74v2c0 30 -10.833 54.5 -32.5 73.5s-51.5 28.5 -89.5 28.5s-67.5 -9.33301 -88.5 -28s-31.5 -43 -31.5 -73v-2c0 -30 10.833 -54.833 32.5 -74.5s51.5 -29.5 89.5 -29.5zM339 -12
c-46 0 -84.9932 6.33496 -116.993 19.002s-60.333 31.334 -85 56.001c-25.333 25.333 -45.5 58.5 -60.5 99.5s-22.5 96.167 -22.5 165.5v2c0 54 6.16699 104.333 18.5 151s31.166 87 56.499 121s57.333 60.833 96 80.5s84 29.5 136 29.5c24 0 46 -1.66699 66 -5
s38.667 -8.33301 56 -15s34 -14.834 50 -24.501s31.667 -20.5 47 -32.5l-81 -119c-11.333 8.66699 -22.333 16.5 -33 23.5s-21.667 12.833 -33 17.5s-23.333 8.33398 -36 11.001s-26.334 4 -41.001 4c-22 0 -41.167 -4.16699 -57.5 -12.5s-30.333 -19.666 -42 -33.999
s-20.834 -31.5 -27.501 -51.5s-11.334 -41.333 -14.001 -64c17.333 11.333 37.166 21.666 59.499 30.999s50.833 14 85.5 14s67 -4.83301 97 -14.5s56 -23.834 78 -42.501s39.333 -41.834 52 -69.501s19 -59.834 19 -96.501v-2c0 -36 -6.83301 -68.833 -20.5 -98.5
s-32.334 -55.167 -56.001 -76.5s-51.834 -37.833 -84.501 -49.5s-68 -17.5 -106 -17.5z" />
    <glyph glyph-name="seven" unicode="7" horiz-adv-x="619" 
d="M397 567h-329v133h504v-116l-314 -584h-174z" />
    <glyph glyph-name="eight" unicode="8" horiz-adv-x="630" 
d="M315 117c38 0 67.667 8.33203 89 24.999s32 37.334 32 62.001v2c0 27.333 -11.333 48.5 -34 63.5s-51.667 22.5 -87 22.5s-64.333 -7.5 -87 -22.5s-34 -36.167 -34 -63.5v-2c0 -24 10.667 -44.5 32 -61.5s51 -25.5 89 -25.5zM315 413.999c30.667 0 55 7.99902 73 23.999
s27 36.333 27 61v2c0 21.333 -8.66699 40.333 -26 57s-42 25 -74 25s-56.667 -8.16699 -74 -24.5s-26 -35.166 -26 -56.499v-2c0 -24.667 9 -45.167 27 -61.5s42.333 -24.5 73 -24.5zM315 -10.002c-38.667 0 -74.502 4.83301 -107.502 14.5s-61.5 23.334 -85.5 41.001
s-42.833 38.834 -56.5 63.501s-20.5 52.334 -20.5 83.001v2c0 42.667 9.5 77.167 28.5 103.5s47.167 48.166 84.5 65.499c-27.333 16.667 -49 36.834 -65 60.501s-24 54.5 -24 92.5v2c0 26.667 5.83301 51.667 17.5 75s28.334 43.666 50.001 60.999s47.5 31 77.5 41
s63.667 15 101 15c36.667 0 70.167 -5 100.5 -15s56.333 -23.5 78 -40.5s38.334 -37.333 50.001 -61s17.5 -48.834 17.5 -75.501v-2c0 -38 -8 -68.833 -24 -92.5s-37.667 -43.834 -65 -60.501c35.333 -18.667 63 -40.5 83 -65.5s30 -58.167 30 -99.5v-2
c0 -32.667 -6.83301 -61.667 -20.5 -87s-32.5 -46.833 -56.5 -64.5s-52.5 -31.167 -85.5 -40.5s-68.833 -14 -107.5 -14z" />
    <glyph glyph-name="nine" unicode="9" horiz-adv-x="662" 
d="M331 367c38 0 67.501 9.83203 88.501 29.499s31.5 44.5 31.5 74.5v2c0 31.333 -10.833 57 -32.5 77s-51.834 30 -90.501 30c-38 0 -67.333 -9.83301 -88 -29.5s-31 -45.167 -31 -76.5v-2c0 -31.333 10.833 -56.666 32.5 -75.999s51.5 -29 89.5 -29zM302.001 -12.001
c-51.333 0 -95 7.6709 -131 23.0039s-69 35.333 -99 60l81 117c25.333 -20.667 49.666 -35.834 72.999 -45.501s50 -14.5 80 -14.5c43.333 0 76.5 14.667 99.5 44s37.167 67.666 42.5 114.999c-17.333 -14.667 -37.666 -26.334 -60.999 -35.001s-50.333 -13 -81 -13
c-38 0 -72.333 5.16699 -103 15.5s-57 25.166 -79 44.499s-38.833 43 -50.5 71s-17.5 59.667 -17.5 95v2c0 35.333 6.5 68 19.5 98s31.167 55.833 54.5 77.5s51.5 38.667 84.5 51s69.167 18.5 108.5 18.5c23.333 0 44.5 -1.5 63.5 -4.5s36.5 -7.5 52.5 -13.5
s31 -13.833 45 -23.5s27.667 -21.167 41 -34.5c12.667 -12.667 24 -27 34 -43s18.667 -34.667 26 -56s13 -45.5 17 -72.5s6 -57.833 6 -92.5v-2c0 -56.667 -6.66699 -108.5 -20 -155.5s-32.833 -87.167 -58.5 -120.5s-57.5 -59.333 -95.5 -78s-82 -28 -132 -28z" />
    <glyph glyph-name="colon" unicode=":" horiz-adv-x="296" 
d="M67 160h162v-160h-162v160zM67 536h162v-160h-162v160z" />
    <glyph glyph-name="semicolon" unicode=";" horiz-adv-x="296" 
d="M31 -99c70.667 7.33301 103.333 40.333 98 99h-62v160h162v-135c0 -66 -16 -113.5 -48 -142.5s-77.667 -43.833 -137 -44.5zM66.999 536h162v-160h-162v160z" />
    <glyph glyph-name="semicolon" unicode="&#x37e;" horiz-adv-x="296" 
d="M31 -99c70.667 7.33301 103.333 40.333 98 99h-62v160h162v-135c0 -66 -16 -113.5 -48 -142.5s-77.667 -43.833 -137 -44.5zM66.999 536h162v-160h-162v160z" />
    <glyph glyph-name="less" unicode="&#x3c;" horiz-adv-x="640" 
d="M68 283v138l484 212v-141l-338 -139l338 -139v-143z" />
    <glyph glyph-name="equal" unicode="=" horiz-adv-x="640" 
d="M83 291h474v-138h-474v138zM83 551h474v-138h-474v138z" />
    <glyph glyph-name="greater" unicode="&#x3e;" horiz-adv-x="640" 
d="M88 212l338 139l-338 139v143l484 -212v-138l-484 -212v141z" />
    <glyph glyph-name="question" unicode="?" horiz-adv-x="544" 
d="M164 160h162v-160h-162v160zM174 400l4.99805 4.99805c63.333 2.66699 108.333 11.834 135 27.501s40 36.834 40 63.501v2c0 22.667 -8 40.167 -24 52.5s-38.667 18.5 -68 18.5c-28 0 -54.167 -5.66699 -78.5 -17s-48.166 -28.666 -71.499 -51.999l-92 101
c29.333 32 63.833 58 103.5 78s86.834 30 141.501 30c36 0 68.833 -4.5 98.5 -13.5s55.167 -22.333 76.5 -40s37.833 -39.334 49.5 -65.001s17.5 -55.167 17.5 -88.5v-2c0 -32 -5.16699 -59.333 -15.5 -82s-24.333 -42 -42 -58s-38.5 -28.833 -62.5 -38.5
s-49.667 -17.167 -77 -22.5l-11 -61h-102z" />
    <glyph glyph-name="at" unicode="@" horiz-adv-x="980" 
d="M462 168c16 0 31.166 3.66504 45.499 10.998s27 17.5 38 30.5s19.667 28.167 26 45.5s9.5 36.333 9.5 57c0 28.667 -8.66699 51.5 -26 68.5s-39.666 25.5 -66.999 25.5c-16 0 -31.333 -3.66699 -46 -11s-27.5 -17.166 -38.5 -29.499s-19.667 -27.166 -26 -44.499
s-9.5 -36 -9.5 -56c0 -31.333 8.66699 -55.333 26 -72s40 -25 68 -25zM498.999 -162.002c-64 0 -123.168 11.499 -177.501 34.499s-101.5 54.333 -141.5 94s-71.167 85.834 -93.5 138.501s-33.5 109 -33.5 169s11.333 116.5 34 169.5s53.667 99.333 93 139
s85.666 71.167 138.999 94.5s110.666 35 171.999 35s118.5 -11 171.5 -33s99.167 -51.333 138.5 -88s70.166 -78.834 92.499 -126.501s33.5 -97.167 33.5 -148.5c0 -42 -5.16699 -78.667 -15.5 -110s-24.5 -57.5 -42.5 -78.5s-39.167 -36.667 -63.5 -47
s-50.166 -15.5 -77.499 -15.5c-40.667 0 -73.167 6.33301 -97.5 19s-42.833 26.334 -55.5 41.001c-17.333 -15.333 -38.166 -29.166 -62.499 -41.499s-52.833 -18.5 -85.5 -18.5c-25.333 0 -49.166 4.5 -71.499 13.5s-41.833 21.833 -58.5 38.5s-29.667 36.834 -39 60.501
s-14 50.5 -14 80.5c0 35.333 6.16699 68.333 18.5 99s28.833 57.167 49.5 79.5s44.5 40 71.5 53s55.167 19.5 84.5 19.5c34.667 0 62.834 -6.5 84.501 -19.5s39.5 -29.167 53.5 -48.5l11 53l118 -19l-47 -269c-1.33301 -5.33301 -2.16602 -10.833 -2.49902 -16.5
s-0.5 -10.5 -0.5 -14.5c0 -18 6.33301 -33 19 -45s30.667 -18 54 -18c18 0 34.667 4.33301 50 13s28.666 21.667 39.999 39s20.333 38.666 27 63.999s10 54.666 10 87.999c0 46 -10 90.5 -30 133.5s-47.5 81 -82.5 114s-76.667 59.333 -125 79s-100.5 29.5 -156.5 29.5
c-56.667 0 -109.167 -10.5 -157.5 -31.5s-90.166 -49.5 -125.499 -85.5s-63 -78.167 -83 -126.5s-30 -99.833 -30 -154.5c0 -55.333 10 -107 30 -155s47.833 -89.833 83.5 -125.5s78.167 -63.834 127.5 -84.501s103.666 -31 162.999 -31c50 0 93.833 5.66699 131.5 17
s75.5 28 113.5 50l20 -32c-38.667 -23.333 -79.5 -41.666 -122.5 -54.999s-90.5 -20 -142.5 -20z" />
    <glyph glyph-name="A" unicode="A" horiz-adv-x="790" 
d="M486 293l-93 227l-93 -227h186zM324 705h142l300 -705h-161l-64 157h-296l-64 -157h-157z" />
    <glyph glyph-name="B" unicode="B" horiz-adv-x="722" 
d="M417 135c34 0 60.667 6.16699 80 18.5s29 31.5 29 57.5v2c0 23.333 -9 41.833 -27 55.5s-47 20.5 -87 20.5h-178v-154h183zM376 417c34 0 61 5.83398 81 17.501s30 30.5 30 56.5v2c0 23.333 -8.66699 41.166 -26 53.499s-42.333 18.5 -75 18.5h-152v-148h142zM84 700.001
l324.999 -0.00292969c80.667 0 141.667 -20.667 183 -62c32 -32 48 -71.667 48 -119v-2c0 -20 -2.5 -37.667 -7.5 -53s-11.667 -29.166 -20 -41.499s-18 -23.166 -29 -32.499s-22.833 -17.333 -35.5 -24c40.667 -15.333 72.667 -36.166 96 -62.499s35 -62.833 35 -109.5v-2
c0 -32 -6.16699 -60 -18.5 -84s-30 -44 -53 -60s-50.667 -28 -83 -36s-68.166 -12 -107.499 -12h-333v700z" />
    <glyph glyph-name="C" unicode="C" horiz-adv-x="738" 
d="M412 -12c-51.333 0 -99.002 9.33008 -143.002 27.9971s-82 44.167 -114 76.5s-57 70.5 -75 114.5s-27 91 -27 141v2c0 50 9 96.833 27 140.5s43 82 75 115s70.333 59 115 78s94 28.5 148 28.5c32.667 0 62.5 -2.66699 89.5 -8s51.5 -12.666 73.5 -21.999
s42.333 -20.666 61 -33.999s36 -28 52 -44l-98 -113c-27.333 24.667 -55.166 44 -83.499 58s-60.166 21 -95.499 21c-29.333 0 -56.5 -5.66699 -81.5 -17s-46.5 -27 -64.5 -47s-32 -43.167 -42 -69.5s-15 -54.5 -15 -84.5v-2c0 -30 5 -58.333 15 -85s23.833 -50 41.5 -70
s39 -35.833 64 -47.5s52.5 -17.5 82.5 -17.5c40 0 73.833 7.33301 101.5 22s55.167 34.667 82.5 60l98 -99c-18 -19.333 -36.667 -36.666 -56 -51.999s-40.5 -28.5 -63.5 -39.5s-48.167 -19.333 -75.5 -25s-58 -8.5 -92 -8.5z" />
    <glyph glyph-name="D" unicode="D" horiz-adv-x="782" 
d="M357 139c31.333 0 60 5.00098 86 15.001s48.167 24.333 66.5 43s32.666 40.667 42.999 66s15.5 53.666 15.5 84.999v2c0 30.667 -5.16699 59 -15.5 85s-24.666 48.333 -42.999 67s-40.5 33.167 -66.5 43.5s-54.667 15.5 -86 15.5h-119v-422h119zM84 700.001
l273 -0.00195312c54.667 0 104.834 -8.83301 150.501 -26.5s85 -42.167 118 -73.5s58.5 -68.166 76.5 -110.499s27 -88.166 27 -137.499v-2c0 -49.333 -9 -95.333 -27 -138s-43.5 -79.667 -76.5 -111s-72.333 -56 -118 -74s-95.834 -27 -150.501 -27h-273v700z" />
    <glyph glyph-name="E" unicode="E" horiz-adv-x="670" 
d="M84 700h528v-137h-375v-142h330v-137h-330v-147h380v-137h-533v700z" />
    <glyph glyph-name="F" unicode="F" horiz-adv-x="656" 
d="M84 700h533v-140h-379v-149h334v-140h-334v-271h-154v700z" />
    <glyph glyph-name="G" unicode="G" horiz-adv-x="784" 
d="M421 -12c-54.667 0 -104.504 9.00195 -149.504 27.002s-83.667 43 -116 75s-57.5 70 -75.5 114s-27 92 -27 144v2c0 50 9.16699 96.833 27.5 140.5s43.833 82 76.5 115s71.334 59 116.001 78s93.667 28.5 147 28.5c31.333 0 59.833 -2.16699 85.5 -6.5
s49.5 -10.5 71.5 -18.5s42.667 -18 62 -30s38 -25.667 56 -41l-97 -117c-13.333 11.333 -26.666 21.333 -39.999 30s-27.166 16 -41.499 22s-29.833 10.667 -46.5 14s-35 5 -55 5c-28 0 -54.167 -5.83301 -78.5 -17.5s-45.666 -27.334 -63.999 -47.001
s-32.666 -42.667 -42.999 -69s-15.5 -54.5 -15.5 -84.5v-2c0 -32 5.16699 -61.5 15.5 -88.5s25 -50.5 44 -70.5s41.333 -35.5 67 -46.5s54.167 -16.5 85.5 -16.5c57.333 0 105.666 14 144.999 42v100h-155v133h304v-304c-36 -30.667 -78.833 -56.834 -128.5 -78.501
s-106.5 -32.5 -170.5 -32.5z" />
    <glyph glyph-name="H" unicode="H" horiz-adv-x="760" 
d="M84 700h154v-277h284v277h154v-700h-154v281h-284v-281h-154v700z" />
    <glyph glyph-name="I" unicode="I" horiz-adv-x="336" 
d="M91 700h154v-700h-154v700z" />
    <glyph glyph-name="J" unicode="J" horiz-adv-x="564" 
d="M243 -10c-54.667 0 -100.501 10.332 -137.501 30.999s-67.5 45.334 -91.5 74.001l97 108c20 -22 40.167 -39.167 60.5 -51.5s42.833 -18.5 67.5 -18.5c29.333 0 52.333 9.16699 69 27.5s25 47.833 25 88.5v451h158v-458c0 -42 -5.66699 -78.333 -17 -109
s-27.666 -56.667 -48.999 -78s-47.5 -37.5 -78.5 -48.5s-65.5 -16.5 -103.5 -16.5z" />
    <glyph glyph-name="K" unicode="K" horiz-adv-x="730" 
d="M84 700h154v-306l284 306h186l-285 -297l298 -403h-185l-217 298l-81 -84v-214h-154v700z" />
    <glyph glyph-name="L" unicode="L" horiz-adv-x="619" 
d="M84 700h154v-560h349v-140h-503v700z" />
    <glyph glyph-name="M" unicode="M" horiz-adv-x="868" 
d="M84 700h166l184 -296l184 296h166v-700h-153v457l-197 -299h-4l-195 296v-454h-151v700z" />
    <glyph glyph-name="N" unicode="N" horiz-adv-x="790" 
d="M84 700h142l328 -431v431h152v-700h-131l-339 445v-445h-152v700z" />
    <glyph glyph-name="O" unicode="O" horiz-adv-x="850" 
d="M426 130c30.667 0 59 5.66699 85 17s48.167 27 66.5 47s32.666 43.167 42.999 69.5s15.5 54.5 15.5 84.5v2c0 30 -5.16699 58.333 -15.5 85s-25 50 -44 70s-41.5 35.833 -67.5 47.5s-54.333 17.5 -85 17.5c-31.333 0 -59.833 -5.66699 -85.5 -17s-47.667 -27 -66 -47
s-32.666 -43.167 -42.999 -69.5s-15.5 -54.5 -15.5 -84.5v-2c0 -30 5.16699 -58.333 15.5 -85s25 -50 44 -70s41.333 -35.833 67 -47.5s54.167 -17.5 85.5 -17.5zM424 -12c-54 0 -103.667 9.5 -149 28.5s-84.5 44.667 -117.5 77s-58.667 70.333 -77 114
s-27.5 90.5 -27.5 140.5v2c0 50 9.33301 96.833 28 140.5s44.5 82 77.5 115s72.333 59 118 78s95.5 28.5 149.5 28.5s103.667 -9.5 149 -28.5s84.5 -44.667 117.5 -77s58.667 -70.333 77 -114s27.5 -90.5 27.5 -140.5v-2c0 -50 -9.33301 -96.833 -28 -140.5
s-44.5 -82 -77.5 -115s-72.333 -59 -118 -78s-95.5 -28.5 -149.5 -28.5z" />
    <glyph glyph-name="P" unicode="P" horiz-adv-x="668" 
d="M360 347c38.667 0 68.667 10.167 90 30.5s32 45.5 32 75.5v2c0 34.667 -11.167 61 -33.5 79s-52.833 27 -91.5 27h-119v-214h122zM84 700l286 0.00195312c42 0 79.5 -5.83301 112.5 -17.5s61 -28.167 84 -49.5s40.667 -46.833 53 -76.5s18.5 -62.5 18.5 -98.5v-2
c0 -40.667 -7.33301 -76.334 -22 -107.001s-34.834 -56.334 -60.501 -77.001s-55.667 -36.167 -90 -46.5s-71.166 -15.5 -110.499 -15.5h-117v-210h-154v700z" />
    <glyph glyph-name="Q" unicode="Q" horiz-adv-x="850" 
d="M426 130c32.667 0 63.332 6.33301 91.999 19l-114 97l98 110l115 -104c12.667 28 19 60 19 96v2c0 30 -5.16699 58.333 -15.5 85s-25 50 -44 70s-41.5 35.833 -67.5 47.5s-54.333 17.5 -85 17.5c-31.333 0 -59.833 -5.66699 -85.5 -17s-47.667 -27 -66 -47
s-32.666 -43.167 -42.999 -69.5s-15.5 -54.5 -15.5 -84.5v-2c0 -30 5.16699 -58.333 15.5 -85s25 -50 44 -70s41.333 -35.833 67 -47.5s54.167 -17.5 85.5 -17.5zM631.998 48c-30 -19.333 -62.333 -34.167 -97 -44.5s-71.667 -15.5 -111 -15.5c-54 0 -103.667 9.5 -149 28.5
s-84.5 44.667 -117.5 77s-58.667 70.333 -77 114s-27.5 90.5 -27.5 140.5v2c0 50 9.33301 96.833 28 140.5s44.5 82 77.5 115s72.333 59 118 78s95.5 28.5 149.5 28.5s103.667 -9.5 149 -28.5s84.5 -44.667 117.5 -77s58.667 -70.333 77 -114s27.5 -90.5 27.5 -140.5v-2
c0 -36.667 -5.33301 -72 -16 -106s-26 -65.667 -46 -95l72 -61l-98 -109z" />
    <glyph glyph-name="R" unicode="R" horiz-adv-x="723" 
d="M394 360c38 0 67.167 9 87.5 27s30.5 42 30.5 72v2c0 33.333 -10.667 58.333 -32 75s-51 25 -89 25h-153v-201h156zM84 700l320.001 0.00195312c88.667 0 156.667 -23.667 204 -71c40 -40 60 -93.333 60 -160v-2c0 -56.667 -13.833 -102.834 -41.5 -138.501
s-63.834 -61.834 -108.501 -78.501l171 -250h-180l-150 224h-2h-119v-224h-154v700z" />
    <glyph glyph-name="S" unicode="S" horiz-adv-x="640" 
d="M333 -10c-53.333 0 -105.667 9.16113 -157 27.4941s-98 46.5 -140 84.5l91 109c32 -26 64.833 -46.667 98.5 -62s70.5 -23 110.5 -23c32 0 56.833 5.83301 74.5 17.5s26.5 27.834 26.5 48.501v2c0 10 -1.83301 18.833 -5.5 26.5s-10.667 14.834 -21 21.501
s-24.666 13.334 -42.999 20.001s-42.166 13.667 -71.499 21c-35.333 8.66699 -67.333 18.334 -96 29.001s-53 23.834 -73 39.501s-35.5 35.167 -46.5 58.5s-16.5 52.333 -16.5 87v2c0 32 6 60.833 18 86.5s28.833 47.834 50.5 66.501s47.5 33 77.5 43s63 15 99 15
c51.333 0 98.5 -7.66699 141.5 -23s82.5 -37.333 118.5 -66l-80 -116c-31.333 21.333 -62 38.166 -92 50.499s-60 18.5 -90 18.5s-52.5 -5.83301 -67.5 -17.5s-22.5 -26.167 -22.5 -43.5v-2c0 -11.333 2.16699 -21.166 6.5 -29.499s12.166 -15.833 23.499 -22.5
s26.833 -13 46.5 -19s44.5 -13 74.5 -21c35.333 -9.33301 66.833 -19.833 94.5 -31.5s51 -25.667 70 -42s33.333 -35.5 43 -57.5s14.5 -48.333 14.5 -79v-2c0 -34.667 -6.33301 -65.5 -19 -92.5s-30.334 -49.667 -53.001 -68s-49.667 -32.333 -81 -42s-66 -14.5 -104 -14.5z
" />
    <glyph glyph-name="T" unicode="T" horiz-adv-x="648" 
d="M247 558h-213v142h580v-142h-213v-558h-154v558z" />
    <glyph glyph-name="U" unicode="U" horiz-adv-x="756" 
d="M376 -11c-94 0 -168 25.998 -222 77.998s-81 129.667 -81 233v400h154v-396c0 -57.333 13.333 -100.5 40 -129.5s63.667 -43.5 111 -43.5s84.333 14 111 42s40 70 40 126v401h154v-395c0 -53.333 -7.16699 -99.666 -21.5 -138.999s-34.833 -72.166 -61.5 -98.499
s-59 -46 -97 -59s-80.333 -19.5 -127 -19.5z" />
    <glyph glyph-name="V" unicode="V" horiz-adv-x="750" 
d="M24 700h170l183 -493l183 493h166l-283 -705h-136z" />
    <glyph glyph-name="W" unicode="W" horiz-adv-x="1122" 
d="M30 700h165l145 -474l157 476h132l157 -476l145 474h161l-239 -705h-134l-158 458l-158 -458h-134z" />
    <glyph glyph-name="X" unicode="X" horiz-adv-x="732" 
d="M275 356l-234 344h180l147 -227l148 227h175l-234 -342l244 -358h-180l-157 240l-158 -240h-175z" />
    <glyph glyph-name="Y" unicode="Y" horiz-adv-x="716" 
d="M281 276l-269 424h180l167 -281l170 281h175l-269 -421v-279h-154v276z" />
    <glyph glyph-name="Z" unicode="Z" horiz-adv-x="708" 
d="M63 117l385 448h-373v135h571v-117l-385 -448h385v-135h-583v117z" />
    <glyph glyph-name="bracketleft" unicode="[" horiz-adv-x="465" 
d="M83 700h323v-119h-177v-592h177v-119h-323v830z" />
    <glyph glyph-name="backslash" unicode="\" horiz-adv-x="530" 
d="M-14 798h129l443 -926h-129z" />
    <glyph glyph-name="bracketright" unicode="]" horiz-adv-x="465" 
d="M59 -11h177v592h-177v119h323v-830h-323v119z" />
    <glyph glyph-name="asciicircum" unicode="^" 
d="M198 700h104l148 -207h-110l-91 117l-91 -117h-108z" />
    <glyph glyph-name="underscore" unicode="_" horiz-adv-x="600" 
d="M-2 -44h604v-116h-604v116z" />
    <glyph glyph-name="grave" unicode="`" 
d="M110 715l131 57l113 -177h-116z" />
    <glyph glyph-name="a" unicode="a" horiz-adv-x="592" 
d="M266 95c36 0 64.833 8.66699 86.5 26s32.5 40 32.5 68v27c-13.333 6 -28.166 10.833 -44.499 14.5s-33.833 5.5 -52.5 5.5c-32.667 0 -58.334 -6.33301 -77.001 -19s-28 -31 -28 -55v-2c0 -20.667 7.66699 -36.667 23 -48s35.333 -17 60 -17zM220 -10
c-25.333 0 -49.165 3.5 -71.498 10.5s-41.833 17.5 -58.5 31.5s-29.834 31.167 -39.501 51.5s-14.5 43.833 -14.5 70.5v2c0 29.333 5.33301 54.666 16 75.999s25.5 39 44.5 53s41.667 24.5 68 31.5s55.5 10.5 87.5 10.5c27.333 0 51.166 -2 71.499 -6
s40.166 -9.33301 59.499 -16v9c0 32 -9.66699 56.333 -29 73s-48 25 -86 25c-29.333 0 -55.166 -2.5 -77.499 -7.5s-45.833 -12.167 -70.5 -21.5l-38 116c29.333 12.667 60 23 92 31s70.667 12 116 12c42 0 77.833 -5.16699 107.5 -15.5s54.167 -25.166 73.5 -44.499
c20 -20 34.667 -44.5 44 -73.5s14 -61.5 14 -97.5v-311h-147v58c-18.667 -20.667 -41 -37.167 -67 -49.5s-57.667 -18.5 -95 -18.5z" />
    <glyph glyph-name="b" unicode="b" horiz-adv-x="675" 
d="M348 119c18 0 34.833 3.5 50.5 10.5s29.5 17 41.5 30s21.5 28.5 28.5 46.5s10.5 38.333 10.5 61v2c0 22 -3.5 42.167 -10.5 60.5s-16.5 34 -28.5 47s-25.833 23 -41.5 30s-32.5 10.5 -50.5 10.5s-34.833 -3.5 -50.5 -10.5s-29.334 -17 -41.001 -30s-21 -28.667 -28 -47
s-10.5 -38.5 -10.5 -60.5v-2c0 -22 3.5 -42.167 10.5 -60.5s16.333 -34 28 -47s25.334 -23 41.001 -30s32.5 -10.5 50.5 -10.5zM387 -10c-40.667 0 -74.168 8.00098 -100.501 24.001s-48.5 34.667 -66.5 56v-70h-152v730h152v-271c18.667 25.333 41.167 46.166 67.5 62.499
s59.5 24.5 99.5 24.5c31.333 0 61.666 -6 90.999 -18s55.333 -29.833 78 -53.5s40.834 -52.667 54.501 -87s20.5 -73.833 20.5 -118.5v-2c0 -44.667 -6.83301 -84.167 -20.5 -118.5s-31.667 -63.333 -54 -87s-48.166 -41.5 -77.499 -53.5s-60 -18 -92 -18z" />
    <glyph glyph-name="c" unicode="c" horiz-adv-x="571" 
d="M321 -12c-40 0 -77.168 7.33398 -111.501 22.001s-63.833 34.5 -88.5 59.5s-44 54.333 -58 88s-21 69.5 -21 107.5v2c0 38 7 74 21 108s33.333 63.667 58 89s54.167 45.333 88.5 60s72.166 22 113.499 22c50.667 0 92.667 -8 126 -24s62.666 -38 87.999 -66l-93 -100
c-17.333 18 -35.166 32.333 -53.499 43s-41.166 16 -68.499 16c-19.333 0 -36.833 -3.83301 -52.5 -11.5s-29.334 -18.167 -41.001 -31.5s-20.667 -28.833 -27 -46.5s-9.5 -36.5 -9.5 -56.5v-2c0 -20.667 3.16699 -40 9.5 -58s15.5 -33.667 27.5 -47
s26.333 -23.833 43 -31.5s35.334 -11.5 56.001 -11.5c25.333 0 47.5 5.16699 66.5 15.5s37.833 24.166 56.5 41.499l89 -90c-26 -28.667 -55.667 -52.167 -89 -70.5s-76.666 -27.5 -129.999 -27.5z" />
    <glyph glyph-name="d" unicode="d" horiz-adv-x="675" 
d="M327 119c18 0 34.833 3.5 50.5 10.5s29.334 17 41.001 30s21 28.667 28 47s10.5 38.5 10.5 60.5v2c0 22 -3.5 42.167 -10.5 60.5s-16.333 34 -28 47s-25.334 23 -41.001 30s-32.5 10.5 -50.5 10.5s-34.833 -3.5 -50.5 -10.5s-29.5 -17 -41.5 -30s-21.5 -28.5 -28.5 -46.5
s-10.5 -38.333 -10.5 -61v-2c0 -22 3.5 -42.167 10.5 -60.5s16.5 -34 28.5 -47s25.833 -23 41.5 -30s32.5 -10.5 50.5 -10.5zM288 -10c-31.333 0 -61.665 5.99902 -90.998 17.999s-55.333 29.833 -78 53.5s-40.834 52.667 -54.501 87s-20.5 73.833 -20.5 118.5v2
c0 44.667 6.83301 84.167 20.5 118.5s31.667 63.333 54 87s48.166 41.5 77.499 53.5s60 18 92 18c40.667 0 74.167 -8 100.5 -24s48.5 -34.667 66.5 -56v264h152v-730h-152v77c-18.667 -25.333 -41.167 -46.166 -67.5 -62.499s-59.5 -24.5 -99.5 -24.5z" />
    <glyph glyph-name="e" unicode="e" horiz-adv-x="613" 
d="M420 310c-4.66699 34 -16.667 61.501 -36 82.501s-45 31.5 -77 31.5s-57.833 -10.333 -77.5 -31s-32.5 -48.334 -38.5 -83.001h229zM322 -11.999c-40 0 -77.167 6.66699 -111.5 20s-64 32.333 -89 57s-44.5 53.834 -58.5 87.501s-21 71.167 -21 112.5v2
c0 38 6.5 74 19.5 108s31.167 63.667 54.5 89s51.166 45.333 83.499 60s68.166 22 107.499 22c44.667 0 83.334 -8 116.001 -24s59.834 -37.5 81.501 -64.5s37.667 -58 48 -93s15.5 -71.5 15.5 -109.5c0 -6 -0.166992 -12.333 -0.5 -19s-0.833008 -13.667 -1.5 -21h-373
c7.33301 -34.667 22.5 -60.834 45.5 -78.501s51.5 -26.5 85.5 -26.5c25.333 0 48 4.33301 68 13s40.667 22.667 62 42l87 -77c-25.333 -31.333 -56 -55.833 -92 -73.5s-78.333 -26.5 -127 -26.5z" />
    <glyph glyph-name="f" unicode="f" horiz-adv-x="382" 
d="M94 406l-63 0.000976562v125h63v34c0 58 14.333 101.333 43 130c28 28 69 42 123 42c24 0 44.5 -1.33301 61.5 -4s32.5 -6.33398 46.5 -11.001v-126c-11.333 4 -22.333 7.16699 -33 9.5s-22.667 3.5 -36 3.5c-36.667 0 -55 -19.333 -55 -58v-21h123v-124h-121v-406h-152
v406z" />
    <glyph glyph-name="g" unicode="g" horiz-adv-x="675" 
d="M326 170c18.667 0 36.0029 3 52.0029 9s29.833 14.5 41.5 25.5s20.834 24.167 27.501 39.5s10 32 10 50v2c0 18 -3.33301 34.667 -10 50s-15.834 28.5 -27.501 39.5s-25.5 19.5 -41.5 25.5s-33.333 9 -52 9s-35.834 -3 -51.501 -9s-29.334 -14.5 -41.001 -25.5
s-20.834 -24.167 -27.501 -39.5s-10 -32 -10 -50v-2c0 -37.333 12.333 -67.333 37 -90s55.667 -34 93 -34zM308.003 -162c-44 0 -86.001 4.83008 -126.001 14.4971s-77 23.5 -111 41.5l52 114c28 -15.333 56.167 -27.333 84.5 -36s60.5 -13 96.5 -13
c52 0 90.5 12.333 115.5 37s37.5 61 37.5 109v26c-22.667 -27.333 -47.334 -48.666 -74.001 -63.999s-60.334 -23 -101.001 -23c-31.333 0 -61.333 5.5 -90 16.5s-54 27.167 -76 48.5s-39.5 47.5 -52.5 78.5s-19.5 66.5 -19.5 106.5v2c0 40 6.66699 75.5 20 106.5
s31 57.167 53 78.5s47.333 37.5 76 48.5s58.334 16.5 89.001 16.5c41.333 0 75.333 -7.66699 102 -23s50.334 -34.333 71.001 -57v70h152v-415c0 -95.333 -22.667 -165.666 -68 -210.999c-25.333 -25.333 -57.166 -43.666 -95.499 -54.999s-83.5 -17 -135.5 -17z" />
    <glyph glyph-name="h" unicode="h" horiz-adv-x="623" 
d="M68 730l152.001 0.000976562v-270c8.66699 11.333 18.167 22.166 28.5 32.499s21.833 19.5 34.5 27.5s26.667 14.333 42 19s32.666 7 51.999 7c58 0 102.833 -17.667 134.5 -53s47.5 -84 47.5 -146v-347h-152v299c0 36 -8 63.167 -24 81.5s-38.667 27.5 -68 27.5
s-52.5 -9.16699 -69.5 -27.5s-25.5 -45.5 -25.5 -81.5v-299h-152v730z" />
    <glyph glyph-name="i" unicode="i" horiz-adv-x="302" 
d="M75 536h152v-536h-152v536zM71 730h160v-135h-160v135z" />
    <glyph glyph-name="j" unicode="j" horiz-adv-x="302" 
d="M55 -163c-14 0 -25.832 0.5 -35.499 1.5s-19.834 2.5 -30.501 4.5v119c12 -2 22.667 -3 32 -3c16 0 29 4.66699 39 14s15 25.333 15 48v515h152v-527c0 -59.333 -14.5 -102.833 -43.5 -130.5s-71.833 -41.5 -128.5 -41.5zM71.001 730h160v-135h-160v135z" />
    <glyph glyph-name="k" unicode="k" horiz-adv-x="592" 
d="M68 730h152v-389l178 195h182l-204 -211l211 -325h-174l-140 219l-53 -56v-163h-152v730z" />
    <glyph glyph-name="l" unicode="l" horiz-adv-x="302" 
d="M75 730h152v-730h-152v730z" />
    <glyph glyph-name="m" unicode="m" horiz-adv-x="950" 
d="M68 536l151.998 0.000976562v-76c8.66699 11.333 18.167 22.166 28.5 32.499s21.833 19.5 34.5 27.5s26.834 14.333 42.501 19s33.167 7 52.5 7c35.333 0 65.833 -7.33301 91.5 -22s45.5 -35.667 59.5 -63c23.333 28 49.333 49.167 78 63.5s61.334 21.5 98.001 21.5
c56.667 0 101 -16.667 133 -50s48 -82.333 48 -147v-349h-152v299c0 36 -7.66699 63.167 -23 81.5s-37.333 27.5 -66 27.5s-51.167 -9.16699 -67.5 -27.5s-24.5 -45.5 -24.5 -81.5v-299h-152v299c0 36 -7.66699 63.167 -23 81.5s-37.333 27.5 -66 27.5
s-51.167 -9.16699 -67.5 -27.5s-24.5 -45.5 -24.5 -81.5v-299h-152v536z" />
    <glyph glyph-name="n" unicode="n" horiz-adv-x="623" 
d="M68 536l152.001 0.000976562v-76c8.66699 11.333 18.167 22.166 28.5 32.499s21.833 19.5 34.5 27.5s26.667 14.333 42 19s32.666 7 51.999 7c58 0 102.833 -17.667 134.5 -53s47.5 -84 47.5 -146v-347h-152v299c0 36 -8 63.167 -24 81.5s-38.667 27.5 -68 27.5
s-52.5 -9.16699 -69.5 -27.5s-25.5 -45.5 -25.5 -81.5v-299h-152v536z" />
    <glyph glyph-name="o" unicode="o" horiz-adv-x="664" 
d="M333 119c22 0 41.5 3.83301 58.5 11.5s31.5 18.167 43.5 31.5s21.167 28.833 27.5 46.5s9.5 36.5 9.5 56.5v2c0 20 -3.33301 38.833 -10 56.5s-16.334 33.334 -29.001 47.001s-27.667 24.5 -45 32.5s-36.333 12 -57 12c-22 0 -41.5 -3.83301 -58.5 -11.5
s-31.5 -18.167 -43.5 -31.5s-21.167 -28.833 -27.5 -46.5s-9.5 -36.5 -9.5 -56.5v-2c0 -20 3.33301 -38.833 10 -56.5s16.334 -33.334 29.001 -47.001s27.5 -24.5 44.5 -32.5s36.167 -12 57.5 -12zM331 -12c-41.333 0 -79.666 7.16699 -114.999 21.5s-65.833 34 -91.5 59
s-45.834 54.333 -60.501 88s-22 69.834 -22 108.501v2c0 38.667 7.33301 74.834 22 108.501s35 63.167 61 88.5s56.667 45.333 92 60s74 22 116 22c41.333 0 79.666 -7.16699 114.999 -21.5s65.833 -34 91.5 -59s45.834 -54.333 60.501 -88s22 -69.834 22 -108.501v-2
c0 -38.667 -7.33301 -74.834 -22 -108.501s-35 -63.167 -61 -88.5s-56.667 -45.333 -92 -60s-74 -22 -116 -22z" />
    <glyph glyph-name="p" unicode="p" horiz-adv-x="675" 
d="M348 119c18 0 34.833 3.5 50.5 10.5s29.5 17 41.5 30s21.5 28.5 28.5 46.5s10.5 38.333 10.5 61v2c0 22 -3.5 42.167 -10.5 60.5s-16.5 34 -28.5 47s-25.833 23 -41.5 30s-32.5 10.5 -50.5 10.5s-34.833 -3.5 -50.5 -10.5s-29.334 -17 -41.001 -30s-21 -28.667 -28 -47
s-10.5 -38.5 -10.5 -60.5v-2c0 -22 3.5 -42.167 10.5 -60.5s16.333 -34 28 -47s25.334 -23 41.001 -30s32.5 -10.5 50.5 -10.5zM68 536l151.999 0.000976562v-77c18.667 25.333 41.167 46.166 67.5 62.499s59.5 24.5 99.5 24.5c31.333 0 61.666 -6 90.999 -18
s55.333 -29.833 78 -53.5s40.834 -52.667 54.501 -87s20.5 -73.833 20.5 -118.5v-2c0 -44.667 -6.83301 -84.167 -20.5 -118.5s-31.667 -63.333 -54 -87s-48.166 -41.5 -77.499 -53.5s-60 -18 -92 -18c-40.667 0 -74.167 8 -100.5 24s-48.5 34.667 -66.5 56v-230h-152v696z
" />
    <glyph glyph-name="q" unicode="q" horiz-adv-x="675" 
d="M327 119c18 0 34.833 3.5 50.5 10.5s29.334 17 41.001 30s21 28.667 28 47s10.5 38.5 10.5 60.5v2c0 22 -3.5 42.167 -10.5 60.5s-16.333 34 -28 47s-25.334 23 -41.001 30s-32.5 10.5 -50.5 10.5s-34.833 -3.5 -50.5 -10.5s-29.5 -17 -41.5 -30s-21.5 -28.5 -28.5 -46.5
s-10.5 -38.333 -10.5 -61v-2c0 -22 3.5 -42.167 10.5 -60.5s16.5 -34 28.5 -47s25.833 -23 41.5 -30s32.5 -10.5 50.5 -10.5zM455 77c-18.667 -25.333 -41.166 -46.167 -67.499 -62.5s-59.5 -24.5 -99.5 -24.5c-31.333 0 -61.666 6 -90.999 18s-55.333 29.833 -78 53.5
s-40.834 52.667 -54.501 87s-20.5 73.833 -20.5 118.5v2c0 44.667 6.83301 84.167 20.5 118.5s31.667 63.333 54 87s48.166 41.5 77.499 53.5s60 18 92 18c40.667 0 74.167 -8 100.5 -24s48.5 -34.667 66.5 -56v70h152v-696h-152v237z" />
    <glyph glyph-name="r" unicode="r" horiz-adv-x="418" 
d="M68 536l152 0.000976562v-108c15.333 36.667 36.333 66 63 88s62.667 32 108 30v-159h-8c-50.667 0 -90.5 -15.333 -119.5 -46s-43.5 -78.334 -43.5 -143.001v-198h-152v536z" />
    <glyph glyph-name="s" unicode="s" horiz-adv-x="502" 
d="M256 -10c-38 0 -76.835 6.50098 -116.502 19.501s-77.5 33.5 -113.5 61.5l65 100c29.333 -21.333 58.5 -37.333 87.5 -48s56.167 -16 81.5 -16c22 0 38.167 3.66699 48.5 11s15.5 17 15.5 29v2c0 8 -3 15 -9 21s-14.167 11.167 -24.5 15.5s-22.166 8.5 -35.499 12.5
l-42 13c-18.667 5.33301 -37.5 11.833 -56.5 19.5s-36.167 17.667 -51.5 30s-27.833 27.5 -37.5 45.5s-14.5 40 -14.5 66v2c0 27.333 5.16699 51.5 15.5 72.5s24.333 38.833 42 53.5s38.334 25.667 62.001 33s49.167 11 76.5 11c34 0 68.5 -5.5 103.5 -16.5
s67.167 -26.167 96.5 -45.5l-58 -105c-26.667 15.333 -52.667 27.5 -78 36.5s-47.666 13.5 -66.999 13.5c-18.667 0 -32.667 -3.5 -42 -10.5s-14 -15.833 -14 -26.5v-2c0 -7.33301 3 -13.833 9 -19.5s14 -11 24 -16s21.5 -9.83301 34.5 -14.5s26.833 -9.33398 41.5 -14.001
c18.667 -6 37.667 -13.167 57 -21.5s36.666 -18.5 51.999 -30.5s28 -26.667 38 -44s15 -38.333 15 -63v-2c0 -30 -5.16699 -55.833 -15.5 -77.5s-24.833 -39.5 -43.5 -53.5s-40.5 -24.5 -65.5 -31.5s-51.833 -10.5 -80.5 -10.5z" />
    <glyph glyph-name="t" unicode="t" horiz-adv-x="415" 
d="M249 -9c-23.333 0 -44.5 2.50098 -63.5 7.50098s-35.333 13.833 -49 26.5s-24.334 29.167 -32.001 49.5s-11.5 46.166 -11.5 77.499v254h-64v130h64v137h152v-137h126v-130h-126v-229c0 -34.667 16.333 -52 49 -52c26.667 0 51.667 6.33301 75 19v-122
c-16 -9.33301 -33.667 -16.833 -53 -22.5s-41.666 -8.5 -66.999 -8.5z" />
    <glyph glyph-name="u" unicode="u" horiz-adv-x="623" 
d="M246 -10c-58 0 -102.834 17.666 -134.501 52.999s-47.5 84 -47.5 146v347h152v-299c0 -36 8 -63.167 24 -81.5s38.667 -27.5 68 -27.5s52.5 9.16699 69.5 27.5s25.5 45.5 25.5 81.5v299h152v-536h-152v76c-8.66699 -11.333 -18.167 -22.166 -28.5 -32.499
s-21.833 -19.5 -34.5 -27.5s-26.667 -14.333 -42 -19s-32.666 -7 -51.999 -7z" />
    <glyph glyph-name="v" unicode="v" horiz-adv-x="600" 
d="M20 536h161l120 -359l121 359h158l-211 -540h-138z" />
    <glyph glyph-name="w" unicode="w" horiz-adv-x="861" 
d="M24 536h154l86 -325l101 327h131l102 -328l88 326h151l-167 -540h-137l-103 329l-105 -329h-136z" />
    <glyph glyph-name="x" unicode="x" horiz-adv-x="584" 
d="M211 272l-181 264h163l100 -156l101 156h159l-181 -261l189 -275h-163l-108 167l-108 -167h-159z" />
    <glyph glyph-name="y" unicode="y" horiz-adv-x="600" 
d="M196 -163c-28 0 -52.6689 3.33301 -74.002 10s-41.666 15.667 -60.999 27l51 110c10 -6 20.833 -11 32.5 -15s22.5 -6 32.5 -6c13.333 0 23.833 2.5 31.5 7.5s14.834 14.167 21.501 27.5l-210 538h161l122 -365l117 365h158l-206 -549
c-10 -27.333 -20.667 -50.5 -32 -69.5s-23.833 -34.5 -37.5 -46.5s-29.167 -20.667 -46.5 -26s-37.333 -8 -60 -8z" />
    <glyph glyph-name="z" unicode="z" horiz-adv-x="563" 
d="M50 107l277 306h-268v123h457v-107l-278 -306h278v-123h-466v107z" />
    <glyph glyph-name="braceleft" unicode="{" horiz-adv-x="490" 
d="M416 -141c-46 8 -84 17.998 -114 29.998s-53.833 26.167 -71.5 42.5s-30.167 35 -37.5 56s-11 44.167 -11 69.5c0 4 0.166992 9 0.5 15s0.666016 12.333 0.999023 19l1 19.5c0.333008 6.33301 0.5 11.5 0.5 15.5c0 39.333 -8.5 66.333 -25.5 81s-45.167 22 -84.5 22h-26
v116h26c39.333 0 67.5 7.33301 84.5 22s25.5 41.667 25.5 81c0 4 -0.166992 9.16699 -0.5 15.5l-1 19.5c-0.333008 6.66699 -0.666016 13 -0.999023 19s-0.5 11 -0.5 15c0 25.333 3.66699 48.5 11 69.5s19.833 39.667 37.5 56s41.5 30.5 71.5 42.5s68 22 114 30l27 -101
c-26.667 -7.33301 -48 -14.833 -64 -22.5s-28.333 -16.167 -37 -25.5s-14.334 -19.666 -17.001 -30.999s-4 -24.666 -4 -39.999c0 -10 0.5 -22.167 1.5 -36.5s1.5 -26.833 1.5 -37.5c0 -36.667 -8.83301 -65.334 -26.5 -86.001s-43.5 -36.667 -77.5 -48
c34 -11.333 59.833 -27.333 77.5 -48s26.5 -49.334 26.5 -86.001c0 -10.667 -0.5 -23.167 -1.5 -37.5s-1.5 -26.5 -1.5 -36.5c0 -15.333 1.33301 -28.666 4 -39.999s8.33398 -21.666 17.001 -30.999s21 -17.833 37 -25.5s37.333 -15.167 64 -22.5z" />
    <glyph glyph-name="bar" unicode="|" horiz-adv-x="350" 
d="M115 798h120v-926h-120v926z" />
    <glyph glyph-name="braceright" unicode="}" horiz-adv-x="490" 
d="M47 -40c26.667 7.33301 48 14.835 64 22.502s28.333 16.167 37 25.5s14.334 19.666 17.001 30.999s4 24.666 4 39.999c0 10 -0.5 22.167 -1.5 36.5s-1.5 26.833 -1.5 37.5c0 36.667 8.83301 65.334 26.5 86.001s43.5 36.667 77.5 48c-34 11.333 -59.833 27.333 -77.5 48
s-26.5 49.334 -26.5 86.001c0 10.667 0.5 23.167 1.5 37.5s1.5 26.5 1.5 36.5c0 15.333 -1.33301 28.666 -4 39.999s-8.33398 21.666 -17.001 30.999s-21 17.833 -37 25.5s-37.333 15.167 -64 22.5l27 101c46 -8 84 -18 114 -30s53.833 -26.167 71.5 -42.5
s30.167 -35 37.5 -56s11 -44.167 11 -69.5c0 -4 -0.166992 -9 -0.5 -15s-0.666016 -12.333 -0.999023 -19l-1 -19.5c-0.333008 -6.33301 -0.5 -11.5 -0.5 -15.5c0 -39.333 8.5 -66.333 25.5 -81s45.167 -22 84.5 -22h26v-116h-26c-39.333 0 -67.5 -7.33301 -84.5 -22
s-25.5 -41.667 -25.5 -81c0 -4 0.166992 -9.16699 0.5 -15.5l1 -19.5c0.333008 -6.66699 0.666016 -13 0.999023 -19s0.5 -11 0.5 -15c0 -25.333 -3.66699 -48.5 -11 -69.5s-19.833 -39.667 -37.5 -56s-41.5 -30.5 -71.5 -42.5s-68 -22 -114 -30z" />
    <glyph glyph-name="asciitilde" unicode="~" horiz-adv-x="510" 
d="M49 249c6 20.667 12.499 39.5 19.499 56.5s15.333 31.5 25 43.5s21 21.333 34 28s28.167 10 45.5 10c15.333 0 30.166 -2 44.499 -6s27.833 -8.5 40.5 -13.5l35 -13.5c10.667 -4 20.667 -6 30 -6c15.333 0 26.833 4.16699 34.5 12.5s15.167 20.5 22.5 36.5l81 -25
c-11.333 -42 -26.166 -75.5 -44.499 -100.5s-44.833 -37.5 -79.5 -37.5c-15.333 0 -30.166 2 -44.499 6s-27.833 8.5 -40.5 13.5l-35.5 13.5c-11 4 -20.833 6 -29.5 6c-15.333 0 -26.833 -4.16699 -34.5 -12.5s-15.167 -20.5 -22.5 -36.5z" />
    <glyph glyph-name="nonbreakingspace" unicode="&#xa0;" horiz-adv-x="300" 
 />
    <glyph glyph-name="exclamdown" unicode="&#xa1;" horiz-adv-x="324" 
d="M73 20l47 442h84l47 -442v-20h-178v20zM81 700h162v-160h-162v160z" />
    <glyph glyph-name="cent" unicode="&#xa2;" horiz-adv-x="581" 
d="M312 503c-17.333 -1.33301 -33.166 -6.16602 -47.499 -14.499s-26.833 -19 -37.5 -32s-18.834 -28 -24.501 -45s-8.5 -35.167 -8.5 -54.5v-2c0 -28 5.5 -53.333 16.5 -76s26.833 -40.334 47.5 -53.001zM227 92c-26.667 10 -50.998 23.4971 -72.998 40.4971
s-41 36.833 -57 59.5s-28.333 47.667 -37 75s-13 56 -13 86v2c0 38.667 7 74.834 21 108.501s33.5 63.167 58.5 88.5s54.5 45.333 88.5 60s71.333 22 112 22h6l14 72h104l-17 -88c22 -7.33301 41.667 -17.333 59 -30s33.666 -27.334 48.999 -44.001l-90 -97
c-8 8 -15.833 15.167 -23.5 21.5s-16.167 11.833 -25.5 16.5l-55 -277c21.333 2.66699 40.666 8.83398 57.999 18.501s34 22.167 50 37.5l86 -87c-26 -29.333 -56 -53.166 -90 -71.499s-75.333 -28.166 -124 -29.499l-16 -82h-104z" />
    <glyph glyph-name="sterling" unicode="&#xa3;" horiz-adv-x="644" 
d="M60 101l76.001 25.001v141h-76v127h76v81c0 36 5.16699 68.667 15.5 98s25.166 53.666 44.499 72.999c20.667 20.667 45.667 36.5 75 47.5s63.333 16.5 102 16.5c28 0 53.333 -3 76 -9s43 -14.167 61 -24.5s34.167 -22.5 48.5 -36.5s27.5 -29 39.5 -45l-117 -94
c-17.333 22 -34 38.5 -50 49.5s-34.667 16.5 -56 16.5c-23.333 0 -42.333 -7.33301 -57 -22c-8 -8 -14.333 -18.333 -19 -31s-7 -27 -7 -43v-77h228v-127h-228v-134h304v-133h-536v101z" />
    <glyph glyph-name="currency" unicode="&#xa4;" horiz-adv-x="720" 
d="M437 -12c-38 0 -73.0049 5.49707 -105.005 16.4971s-60.5 26.5 -85.5 46.5s-46.333 44.167 -64 72.5s-31.5 59.5 -41.5 93.5h-92v101h75c-0.666992 5.33301 -1 10.333 -1 15v15v2v18c0 6 0.333008 12 1 18h-75v101h94c10 32.667 24 62.834 42 90.501s39.333 51.5 64 71.5
s52.5 35.5 83.5 46.5s64.833 16.5 101.5 16.5c30.667 0 58.334 -3.16699 83.001 -9.5s46.834 -15.166 66.501 -26.499s37.334 -24.833 53.001 -40.5s30.167 -32.834 43.5 -51.501l-116 -88c-19.333 25.333 -39 44.833 -59 58.5s-44.667 20.5 -74 20.5
c-30 0 -55.5 -7.66699 -76.5 -23s-38.167 -37 -51.5 -65h185v-101h-208c-0.666992 -5.33301 -1 -10.833 -1 -16.5v-17.5v-2v-16c0 -5.33301 0.333008 -10.666 1 -15.999h208v-101h-186c13.333 -30 31.166 -52.833 53.499 -68.5s49.5 -23.5 81.5 -23.5
c28.667 0 52.834 6.83301 72.501 20.5s40.5 34.167 62.5 61.5l110 -81c-29.333 -41.333 -63.166 -74.666 -101.499 -99.999s-86.166 -38 -143.499 -38z" />
    <glyph glyph-name="yen" unicode="&#xa5;" horiz-adv-x="686" 
d="M269 92h-184v108h184v62h-184v108h143l-214 330h177l154 -259l155 259h172l-216 -330h145v-108h-184v-62h184v-108h-184v-92h-148v92z" />
    <glyph glyph-name="section" unicode="&#xa7;" horiz-adv-x="632" 
d="M389 289c15.333 0 28.333 3.83301 39 11.5s16 18.5 16 32.5v2c0 13.333 -8.16699 24.166 -24.5 32.499s-41.833 16.833 -76.5 25.5c-26 6.66699 -46.5 11.334 -61.5 14.001s-27.833 4 -38.5 4c-15.333 0 -28.333 -3.83301 -39 -11.5s-16 -18.5 -16 -32.5v-2
c0 -13.333 8.16699 -24.166 24.5 -32.499s41.833 -16.833 76.5 -25.5c26 -6.66699 46.5 -11.334 61.5 -14.001s27.833 -4 38.5 -4zM325 -10c-51.333 0 -96.001 8.15723 -134.001 24.4902s-71 39.833 -99 70.5l82 82c23.333 -21.333 46.666 -37.666 69.999 -48.999
s49 -17 77 -17c22.667 0 39.334 3.33301 50.001 10s16 15.334 16 26.001v2c0 6 -1.66699 11.333 -5 16s-9 9 -17 13s-19.167 8.16699 -33.5 12.5s-32.5 8.83301 -54.5 13.5c-39.333 8.66699 -73 17.834 -101 27.501s-51 20.334 -69 32.001s-31.167 24.834 -39.5 39.501
s-12.5 31.334 -12.5 50.001v2c0 16.667 2.33301 31.334 7 44.001s11.167 23.667 19.5 33s17.833 17.166 28.5 23.499s22 11.833 34 16.5c-14.667 11.333 -25.334 25 -32.001 41s-10 32.667 -10 50v2c0 48 18 85.833 54 113.5s86.333 41.5 151 41.5
c51.333 0 96 -8.16699 134 -24.5s71 -39.833 99 -70.5l-82 -82c-23.333 21.333 -46.666 37.666 -69.999 48.999s-49 17 -77 17c-21.333 0 -37.666 -3.16699 -48.999 -9.5s-17 -15.166 -17 -26.499v-2c0 -5.33301 1.33301 -10.166 4 -14.499s7.83398 -8.66602 15.501 -12.999
s18.667 -8.66602 33 -12.999s33.5 -9.16602 57.5 -14.499c39.333 -8.66699 73 -17.667 101 -27s51 -19.833 69 -31.5s31.167 -24.834 39.5 -39.501s12.5 -31.667 12.5 -51v-2c0 -33.333 -8.83301 -58.833 -26.5 -76.5s-38.5 -31.167 -62.5 -40.5
c13.333 -10.667 23.666 -24.167 30.999 -40.5s11 -33.166 11 -50.499v-2c0 -47.333 -17.833 -85 -53.5 -113s-86.167 -42 -151.5 -42z" />
    <glyph glyph-name="dieresis" unicode="&#xa8;" 
d="M70 730h146v-135h-146v135zM284 730h146v-135h-146v135z" />
    <glyph glyph-name="copyright" unicode="&#xa9;" horiz-adv-x="830" 
d="M419 156c-28 0 -54.1689 5.16699 -78.502 15.5s-45.166 24.333 -62.499 42s-31 38.5 -41 62.5s-15 49.667 -15 77v2c0 27.333 4.83301 53 14.5 77s23.334 45 41.001 63s38.834 32.333 63.501 43s51.667 16 81 16c36.667 0 66.667 -5.5 90 -16.5s44 -25.167 62 -42.5
l-55 -64c-14.667 13.333 -29.834 23.833 -45.501 31.5s-32.834 11.5 -51.501 11.5c-16 0 -30.667 -3.16699 -44 -9.5s-25 -14.833 -35 -25.5s-17.667 -23.167 -23 -37.5s-8 -29.5 -8 -45.5v-2c0 -16 2.66699 -31.167 8 -45.5s12.833 -26.833 22.5 -37.5
s21.334 -19.167 35.001 -25.5s28.5 -9.5 44.5 -9.5c21.333 0 39.333 4.16699 54 12.5s29.667 19.166 45 32.499l56 -56c-20 -21.333 -42 -38.166 -66 -50.499s-54.667 -18.5 -92 -18.5zM413.998 28c46 0 88.499 8.5 127.499 25.5s72.833 40 101.5 69
s51.167 63.167 67.5 102.5s24.5 81 24.5 125v2c0 44 -8.16699 85.5 -24.5 124.5s-38.666 73 -66.999 102s-62 51.833 -101 68.5s-81.167 25 -126.5 25c-46 0 -88.5 -8.5 -127.5 -25.5s-72.833 -40 -101.5 -69s-51.167 -63.167 -67.5 -102.5s-24.5 -81 -24.5 -125v-2
c0 -44 8 -85.5 24 -124.5s38.333 -73 67 -102s62.5 -51.833 101.5 -68.5s81.167 -25 126.5 -25zM413.997 -12c-50.667 0 -98 9.5 -142 28.5s-82.167 44.833 -114.5 77.5s-57.833 70.834 -76.5 114.501s-28 90.167 -28 139.5v2c0 49.333 9.33301 95.833 28 139.5
s44.334 82 77.001 115s71.167 59.167 115.5 78.5s91.833 29 142.5 29s98 -9.5 142 -28.5s82.167 -44.833 114.5 -77.5s57.833 -70.834 76.5 -114.501s28 -90.167 28 -139.5v-2c0 -49.333 -9.33301 -95.833 -28 -139.5s-44.334 -82 -77.001 -115
s-71.167 -59.167 -115.5 -78.5s-91.833 -29 -142.5 -29z" />
    <glyph glyph-name="ordfeminine" unicode="&#xaa;" horiz-adv-x="390" 
d="M178 457c19.333 0 35.167 4.83203 47.5 14.499s18.5 22.167 18.5 37.5v15c-7.33301 3.33301 -15.5 6 -24.5 8s-18.833 3 -29.5 3c-17.333 0 -31.166 -3.33301 -41.499 -10s-15.5 -16.667 -15.5 -30v-2c0 -11.333 4.16699 -20.166 12.5 -26.499s19.166 -9.5 32.499 -9.5z
M49.001 342.999h278v-66h-278v66zM153.001 398.999c-28 0 -51.833 7.66895 -71.5 23.002s-29.5 37.666 -29.5 66.999v2c0 32 11 55.667 33 71s50.667 23 86 23c14.667 0 27.667 -1.16699 39 -3.5s22.333 -5.16602 33 -8.49902v5c0 17.333 -5.33301 30.666 -16 39.999
s-26.667 14 -48 14c-15.333 0 -29.333 -1.33301 -42 -4s-25.667 -6.66699 -39 -12l-21 63c16.667 7.33301 33.5 13.166 50.5 17.499s38.167 6.5 63.5 6.5c44.667 0 78 -11 100 -33c11.333 -11.333 19.5 -25 24.5 -41s7.5 -33.667 7.5 -53v-171h-81v32
c-10 -11.333 -22.167 -20.5 -36.5 -27.5s-31.833 -10.5 -52.5 -10.5z" />
    <glyph glyph-name="guillemotleft" unicode="&#xab;" horiz-adv-x="645" 
d="M41 264v8l168 224l116 -56l-130 -171l130 -171l-116 -58zM313 264v8l168 224l116 -56l-130 -171l130 -171l-116 -58z" />
    <glyph glyph-name="registered" unicode="&#xae;" horiz-adv-x="830" 
d="M436 365c21.333 0 37.667 5.16699 49 15.5s17 23.5 17 39.5v2c0 18.667 -6 32.667 -18 42s-28.667 14 -50 14h-83v-113h85zM266.001 553l171 -0.00195312c51.333 0 91 -14 119 -42c21.333 -21.333 32 -49.333 32 -84v-2c0 -31.333 -7.66699 -56.666 -23 -75.999
s-35.333 -33.666 -60 -42.999l94 -138h-99l-82 124h-2h-65v-124h-85v385zM414.001 27.998c46 0 88.499 8.5 127.499 25.5s72.833 40 101.5 69s51.167 63.167 67.5 102.5s24.5 81 24.5 125v2c0 44 -8.16699 85.5 -24.5 124.5s-38.666 73 -66.999 102s-62 51.833 -101 68.5
s-81.167 25 -126.5 25c-46 0 -88.5 -8.5 -127.5 -25.5s-72.833 -40 -101.5 -69s-51.167 -63.167 -67.5 -102.5s-24.5 -81 -24.5 -125v-2c0 -44 8 -85.5 24 -124.5s38.333 -73 67 -102s62.5 -51.833 101.5 -68.5s81.167 -25 126.5 -25zM414 -12.002
c-50.667 0 -98 9.5 -142 28.5s-82.167 44.833 -114.5 77.5s-57.833 70.834 -76.5 114.501s-28 90.167 -28 139.5v2c0 49.333 9.33301 95.833 28 139.5s44.334 82 77.001 115s71.167 59.167 115.5 78.5s91.833 29 142.5 29s98 -9.5 142 -28.5s82.167 -44.833 114.5 -77.5
s57.833 -70.834 76.5 -114.501s28 -90.167 28 -139.5v-2c0 -49.333 -9.33301 -95.833 -28 -139.5s-44.334 -82 -77.001 -115s-71.167 -59.167 -115.5 -78.5s-91.833 -29 -142.5 -29z" />
    <glyph glyph-name="macron" unicode="&#xaf;" 
d="M70 705h360v-105h-360v105z" />
    <glyph glyph-name="macron" unicode="&#x2c9;" 
d="M70 705h360v-105h-360v105z" />
    <glyph glyph-name="degree" unicode="&#xb0;" horiz-adv-x="480" 
d="M240 443c26.667 0 48.667 9.16699 66 27.5s26 40.166 26 65.499v2c0 25.333 -8.66699 47.166 -26 65.499s-39.333 27.5 -66 27.5s-48.667 -9.16699 -66 -27.5s-26 -40.166 -26 -65.499v-2c0 -25.333 8.66699 -47.166 26 -65.499s39.333 -27.5 66 -27.5zM240 368
c-22.667 0 -44.5 4.5 -65.5 13.5s-39.5 21.167 -55.5 36.5s-28.667 33.166 -38 53.499s-14 41.833 -14 64.5v2c0 22.667 4.66699 44.167 14 64.5s22 38.166 38 53.499s34.5 27.5 55.5 36.5s42.833 13.5 65.5 13.5s44.5 -4.5 65.5 -13.5s39.5 -21.167 55.5 -36.5
s28.667 -33.166 38 -53.499s14 -41.833 14 -64.5v-2c0 -22.667 -4.66699 -44.167 -14 -64.5s-22 -38.166 -38 -53.499s-34.5 -27.5 -55.5 -36.5s-42.833 -13.5 -65.5 -13.5z" />
    <glyph glyph-name="plusminus" unicode="&#xb1;" horiz-adv-x="614" 
d="M314 -12c-58 0 -110.167 10.667 -156.5 32s-86.5 50.333 -120.5 87l103 100c23.333 -24.667 49 -44.334 77 -59.001s61 -22 99 -22c33.333 0 58.833 7.33301 76.5 22s26.5 34.667 26.5 60v2c0 26 -11.5 45.667 -34.5 59s-55.5 20 -97.5 20h-77v128h81
c36 0 63.167 7.66699 81.5 23s27.5 34.666 27.5 57.999v2c0 21.333 -8.83301 39 -26.5 53s-42.5 21 -74.5 21c-30 0 -56 -7.5 -78 -22.5s-43.667 -34.5 -65 -58.5l-106 90c16 20 32.333 37.833 49 53.5s35 29.167 55 40.5s42 20 66 26s51 9 81 9
c38 0 72.333 -4.66699 103 -14s57 -22.333 79 -39s38.833 -36.5 50.5 -59.5s17.5 -48.167 17.5 -75.5v-2c0 -42 -8.5 -75.667 -25.5 -101s-39.167 -45.666 -66.5 -60.999c32 -14 58.5 -32.667 79.5 -56s31.5 -55.333 31.5 -96v-2c0 -31.333 -5.66699 -60.166 -17 -86.499
s-27.833 -49.333 -49.5 -69s-48.5 -35 -80.5 -46s-68.333 -16.5 -109 -16.5z" />
    <glyph glyph-name="acute" unicode="&#xb4;" 
d="M259 772l131 -57l-128 -120h-116z" />
    <glyph glyph-name="mu" unicode="&#xb5;" horiz-adv-x="850" 
d="M426 130c30.667 0 59 5.66699 85 17s48.167 27 66.5 47s32.666 43.167 42.999 69.5s15.5 54.5 15.5 84.5v2c0 30 -5.16699 58.333 -15.5 85s-25 50 -44 70s-41.5 35.833 -67.5 47.5s-54.333 17.5 -85 17.5c-31.333 0 -59.833 -5.66699 -85.5 -17s-47.667 -27 -66 -47
s-32.666 -43.167 -42.999 -69.5s-15.5 -54.5 -15.5 -84.5v-2c0 -30 5.16699 -58.333 15.5 -85s25 -50 44 -70s41.333 -35.833 67 -47.5s54.167 -17.5 85.5 -17.5zM530 2c-34 -9.33301 -69.333 -14 -106 -14c-54 0 -103.667 9.5 -149 28.5s-84.5 44.667 -117.5 77
s-58.667 70.333 -77 114s-27.5 90.5 -27.5 140.5v2c0 50 9.33301 96.833 28 140.5s44.5 82 77.5 115s72.333 59 118 78s95.5 28.5 149.5 28.5s103.667 -9.5 149 -28.5s84.5 -44.667 117.5 -77s58.667 -70.333 77 -114s27.5 -90.5 27.5 -140.5v-2
c0 -52 -9.83301 -100.5 -29.5 -145.5s-47.5 -84.167 -83.5 -117.5l177 -178v-10h-226z" />
    <glyph glyph-name="mu" unicode="&#x3bc;" horiz-adv-x="850" 
d="M426 130c30.667 0 59 5.66699 85 17s48.167 27 66.5 47s32.666 43.167 42.999 69.5s15.5 54.5 15.5 84.5v2c0 30 -5.16699 58.333 -15.5 85s-25 50 -44 70s-41.5 35.833 -67.5 47.5s-54.333 17.5 -85 17.5c-31.333 0 -59.833 -5.66699 -85.5 -17s-47.667 -27 -66 -47
s-32.666 -43.167 -42.999 -69.5s-15.5 -54.5 -15.5 -84.5v-2c0 -30 5.16699 -58.333 15.5 -85s25 -50 44 -70s41.333 -35.833 67 -47.5s54.167 -17.5 85.5 -17.5zM530 2c-34 -9.33301 -69.333 -14 -106 -14c-54 0 -103.667 9.5 -149 28.5s-84.5 44.667 -117.5 77
s-58.667 70.333 -77 114s-27.5 90.5 -27.5 140.5v2c0 50 9.33301 96.833 28 140.5s44.5 82 77.5 115s72.333 59 118 78s95.5 28.5 149.5 28.5s103.667 -9.5 149 -28.5s84.5 -44.667 117.5 -77s58.667 -70.333 77 -114s27.5 -90.5 27.5 -140.5v-2
c0 -52 -9.83301 -100.5 -29.5 -145.5s-47.5 -84.167 -83.5 -117.5l177 -178v-10h-226z" />
    <glyph glyph-name="paragraph" unicode="&#xb6;" horiz-adv-x="590" 
d="M352 230l-23.999 -0.000976562c-42 0 -80.833 4.83301 -116.5 14.5s-66.667 24.334 -93 44.001s-46.833 44 -61.5 73s-22 62.833 -22 101.5v2c0 36.667 6.66699 69.5 20 98.5s32.166 53.667 56.499 74s53.333 35.833 87 46.5s71.167 16 112.5 16h195v-700h-154v230z" />
    <glyph glyph-name="periodcentered" unicode="&#xb7;" horiz-adv-x="286" 
d="M62 390h162v-160h-162v160z" />
    <glyph glyph-name="periodcentered" unicode="&#x2219;" horiz-adv-x="286" 
d="M62 390h162v-160h-162v160z" />
    <glyph glyph-name="cedilla" unicode="&#xb8;" 
d="M118 -120l89 130h112l-74 -183z" />
    <glyph glyph-name="ordmasculine" unicode="&#xba;" horiz-adv-x="390" 
d="M196 470c22 0 39.333 8 52 24s19 34.667 19 56v2c0 21.333 -6.66699 40.166 -20 56.499s-31 24.5 -53 24.5s-39.333 -8 -52 -24s-19 -34.667 -19 -56v-2c0 -21.333 6.66699 -40.166 20 -56.499s31 -24.5 53 -24.5zM51 343h288v-66h-288v66zM194 398
c-22 0 -42.333 4 -61 12s-34.834 18.833 -48.501 32.5s-24.334 29.667 -32.001 48s-11.5 38.166 -11.5 59.499v2c0 21.333 4 41.333 12 60s18.833 34.834 32.5 48.501s30 24.5 49 32.5s39.5 12 61.5 12s42.333 -4 61 -12s34.834 -18.833 48.501 -32.5
s24.334 -29.667 32.001 -48s11.5 -38.166 11.5 -59.499v-2c0 -21.333 -4 -41.333 -12 -60s-18.833 -34.834 -32.5 -48.501s-30 -24.5 -49 -32.5s-39.5 -12 -61.5 -12z" />
    <glyph glyph-name="guillemotright" unicode="&#xbb;" horiz-adv-x="645" 
d="M48 96l130 171l-130 171l116 58l168 -224v-8l-168 -224zM320 96l130 171l-130 171l116 58l168 -224v-8l-168 -224z" />
    <glyph glyph-name="questiondown" unicode="&#xbf;" horiz-adv-x="544" 
d="M279 -9c-36 0 -68.8311 4.50195 -98.498 13.502s-55.167 22.333 -76.5 40s-37.833 39.334 -49.5 65.001s-17.5 55.167 -17.5 88.5v2c0 32 5.16699 59.333 15.5 82s24.333 42 42 58s38.5 28.833 62.5 38.5s49.667 17.167 77 22.5l11 61h102l23 -162l-5 -5
c-63.333 -2.66699 -108.333 -11.834 -135 -27.501s-40 -36.834 -40 -63.501v-2c0 -22.667 8 -40.167 24 -52.5s38.667 -18.5 68 -18.5c28 0 54.167 5.66699 78.5 17s48.166 28.666 71.499 51.999l92 -101c-29.333 -32 -63.833 -58 -103.5 -78s-86.834 -30 -141.501 -30z
M218.002 700.002h162v-160h-162v160z" />
    <glyph glyph-name="Agrave" unicode="&#xc0;" horiz-adv-x="790" 
d="M215 875l131 57l113 -177h-116zM486 293l-93 227l-93 -227h186zM324 705h142l300 -705h-161l-64 157h-296l-64 -157h-157z" />
    <glyph glyph-name="Aacute" unicode="&#xc1;" horiz-adv-x="790" 
d="M444 932l131 -57l-128 -120h-116zM486 293l-93 227l-93 -227h186zM324 705h142l300 -705h-161l-64 157h-296l-64 -157h-157z" />
    <glyph glyph-name="Acircumflex" unicode="&#xc2;" horiz-adv-x="790" 
d="M323 912h144l123 -157h-117l-79 66l-79 -66h-115zM486 293l-93 227l-93 -227h186zM324 705h142l300 -705h-161l-64 157h-296l-64 -157h-157z" />
    <glyph glyph-name="Atilde" unicode="&#xc3;" horiz-adv-x="790" 
d="M189 770c6 20.667 12.499 39.5 19.499 56.5s15.333 31.5 25 43.5s21 21.333 34 28s28.167 10 45.5 10c15.333 0 30.166 -2 44.499 -6s27.833 -8.5 40.5 -13.5l35 -13.5c10.667 -4 20.667 -6 30 -6c15.333 0 26.833 4.16699 34.5 12.5s15.167 20.5 22.5 36.5l81 -25
c-11.333 -42 -26.166 -75.5 -44.499 -100.5s-44.833 -37.5 -79.5 -37.5c-15.333 0 -30.166 2 -44.499 6s-27.833 8.5 -40.5 13.5l-35.5 13.5c-11 4 -20.833 6 -29.5 6c-15.333 0 -26.833 -4.16699 -34.5 -12.5s-15.167 -20.5 -22.5 -36.5zM485.999 293l-93 227l-93 -227h186
zM323.999 705h142l300 -705h-161l-64 157h-296l-64 -157h-157z" />
    <glyph glyph-name="Adieresis" unicode="&#xc4;" horiz-adv-x="790" 
d="M215 890h146v-135h-146v135zM429 890h146v-135h-146v135zM486 293l-93 227l-93 -227h186zM324 705h142l300 -705h-161l-64 157h-296l-64 -157h-157z" />
    <glyph glyph-name="Aring" unicode="&#xc5;" horiz-adv-x="790" 
d="M486 293l-93 227l-93 -227h186zM395 713c17.333 0 32 6 44 18s18 26.333 18 43v2c0 16.667 -6 31 -18 43s-26.667 18 -44 18s-32 -6 -44 -18s-18 -26.333 -18 -43v-2c0 -16.667 6 -31 18 -43s26.667 -18 44 -18zM316 687c-12.667 11.333 -22.832 24.333 -30.499 39
s-11.5 30.667 -11.5 48v2c0 16 3.33301 31 10 45s15.5 26.167 26.5 36.5s23.833 18.666 38.5 24.999s30 9.5 46 9.5s31.333 -3.16699 46 -9.5s27.5 -14.666 38.5 -24.999s19.833 -22.5 26.5 -36.5s10 -29 10 -45v-2c0 -17.333 -3.83301 -33.333 -11.5 -48
s-17.834 -27.667 -30.501 -39l292 -687h-161l-64 157h-296l-64 -157h-157z" />
    <glyph glyph-name="AE" unicode="&#xc6;" horiz-adv-x="1045" 
d="M484 293v274h-18l-145 -274h163zM386 700h601v-137h-350v-142h305v-137h-305v-147h355v-137h-508v157h-235l-83 -157h-157z" />
    <glyph glyph-name="Ccedilla" unicode="&#xc7;" horiz-adv-x="738" 
d="M246 -120l79.998 118c-40 9.33301 -76.833 24.666 -110.5 45.999s-62.5 47.333 -86.5 78s-42.667 65.167 -56 103.5s-20 79.166 -20 122.499v2c0 50 9 96.833 27 140.5s43 82 75 115s70.333 59 115 78s94 28.5 148 28.5c32.667 0 62.5 -2.66699 89.5 -8
s51.5 -12.666 73.5 -21.999s42.333 -20.666 61 -33.999s36 -28 52 -44l-98 -113c-27.333 24.667 -55.166 44 -83.499 58s-60.166 21 -95.499 21c-29.333 0 -56.5 -5.66699 -81.5 -17s-46.5 -27 -64.5 -47s-32 -43.167 -42 -69.5s-15 -54.5 -15 -84.5v-2
c0 -30 5 -58.333 15 -85s23.833 -50 41.5 -70s39 -35.833 64 -47.5s52.5 -17.5 82.5 -17.5c40 0 73.833 7.33301 101.5 22s55.167 34.667 82.5 60l98 -99c-16.667 -18 -34 -34.333 -52 -49s-37.5 -27.334 -58.5 -38.001s-43.833 -19.167 -68.5 -25.5
s-52 -10.166 -82 -11.499l-65 -162z" />
    <glyph glyph-name="Egrave" unicode="&#xc8;" horiz-adv-x="670" 
d="M189 875l131 57l113 -177h-116zM84 700h528v-137h-375v-142h330v-137h-330v-147h380v-137h-533v700z" />
    <glyph glyph-name="Eacute" unicode="&#xc9;" horiz-adv-x="670" 
d="M377 932l131 -57l-128 -120h-116zM84 700h528v-137h-375v-142h330v-137h-330v-147h380v-137h-533v700z" />
    <glyph glyph-name="Ecircumflex" unicode="&#xca;" horiz-adv-x="670" 
d="M274 912h144l123 -157h-117l-79 66l-79 -66h-115zM84 700h528v-137h-375v-142h330v-137h-330v-147h380v-137h-533v700z" />
    <glyph glyph-name="Edieresis" unicode="&#xcb;" horiz-adv-x="670" 
d="M166 890h146v-135h-146v135zM380 890h146v-135h-146v135zM84 700h528v-137h-375v-142h330v-137h-330v-147h380v-137h-533v700z" />
    <glyph glyph-name="Igrave" unicode="&#xcc;" horiz-adv-x="336" 
d="M-12 875l131 57l113 -177h-116zM91 700h154v-700h-154v700z" />
    <glyph glyph-name="Iacute" unicode="&#xcd;" horiz-adv-x="336" 
d="M217 932l131 -57l-128 -120h-116zM91 700h154v-700h-154v700z" />
    <glyph glyph-name="Icircumflex" unicode="&#xce;" horiz-adv-x="336" 
d="M96 912h144l123 -157h-117l-79 66l-79 -66h-115zM91 700h154v-700h-154v700z" />
    <glyph glyph-name="Idieresis" unicode="&#xcf;" horiz-adv-x="336" 
d="M-12 890h146v-135h-146v135zM202 890h146v-135h-146v135zM91 700h154v-700h-154v700z" />
    <glyph glyph-name="Eth" unicode="&#xd0;" horiz-adv-x="812" 
d="M387 139c31.333 0 60 5.00098 86 15.001s48.167 24.333 66.5 43s32.666 40.667 42.999 66s15.5 53.666 15.5 84.999v2c0 30.667 -5.16699 59 -15.5 85s-24.666 48.333 -42.999 67s-40.5 33.167 -66.5 43.5s-54.667 15.5 -86 15.5h-121v-141h152v-136h-152v-145h121z
M114 284.001l-75 -0.00195312v136h75v280h273c54.667 0 104.834 -8.83301 150.501 -26.5s85 -42.167 118 -73.5s58.5 -68.166 76.5 -110.499s27 -88.166 27 -137.499v-2c0 -49.333 -9 -95.333 -27 -138s-43.5 -79.667 -76.5 -111s-72.333 -56 -118 -74
s-95.834 -27 -150.501 -27h-273v284z" />
    <glyph glyph-name="Ntilde" unicode="&#xd1;" horiz-adv-x="790" 
d="M189 770c6 20.667 12.499 39.5 19.499 56.5s15.333 31.5 25 43.5s21 21.333 34 28s28.167 10 45.5 10c15.333 0 30.166 -2 44.499 -6s27.833 -8.5 40.5 -13.5l35 -13.5c10.667 -4 20.667 -6 30 -6c15.333 0 26.833 4.16699 34.5 12.5s15.167 20.5 22.5 36.5l81 -25
c-11.333 -42 -26.166 -75.5 -44.499 -100.5s-44.833 -37.5 -79.5 -37.5c-15.333 0 -30.166 2 -44.499 6s-27.833 8.5 -40.5 13.5l-35.5 13.5c-11 4 -20.833 6 -29.5 6c-15.333 0 -26.833 -4.16699 -34.5 -12.5s-15.167 -20.5 -22.5 -36.5zM83.999 700h142l328 -431v431h152
v-700h-131l-339 445v-445h-152v700z" />
    <glyph glyph-name="Ograve" unicode="&#xd2;" horiz-adv-x="850" 
d="M235 875l131 57l113 -177h-116zM426 130c30.667 0 59 5.66699 85 17s48.167 27 66.5 47s32.666 43.167 42.999 69.5s15.5 54.5 15.5 84.5v2c0 30 -5.16699 58.333 -15.5 85s-25 50 -44 70s-41.5 35.833 -67.5 47.5s-54.333 17.5 -85 17.5
c-31.333 0 -59.833 -5.66699 -85.5 -17s-47.667 -27 -66 -47s-32.666 -43.167 -42.999 -69.5s-15.5 -54.5 -15.5 -84.5v-2c0 -30 5.16699 -58.333 15.5 -85s25 -50 44 -70s41.333 -35.833 67 -47.5s54.167 -17.5 85.5 -17.5zM424 -12c-54 0 -103.667 9.5 -149 28.5
s-84.5 44.667 -117.5 77s-58.667 70.333 -77 114s-27.5 90.5 -27.5 140.5v2c0 50 9.33301 96.833 28 140.5s44.5 82 77.5 115s72.333 59 118 78s95.5 28.5 149.5 28.5s103.667 -9.5 149 -28.5s84.5 -44.667 117.5 -77s58.667 -70.333 77 -114s27.5 -90.5 27.5 -140.5v-2
c0 -50 -9.33301 -96.833 -28 -140.5s-44.5 -82 -77.5 -115s-72.333 -59 -118 -78s-95.5 -28.5 -149.5 -28.5z" />
    <glyph glyph-name="Oacute" unicode="&#xd3;" horiz-adv-x="850" 
d="M484 932l131 -57l-128 -120h-116zM426 130c30.667 0 59 5.66699 85 17s48.167 27 66.5 47s32.666 43.167 42.999 69.5s15.5 54.5 15.5 84.5v2c0 30 -5.16699 58.333 -15.5 85s-25 50 -44 70s-41.5 35.833 -67.5 47.5s-54.333 17.5 -85 17.5
c-31.333 0 -59.833 -5.66699 -85.5 -17s-47.667 -27 -66 -47s-32.666 -43.167 -42.999 -69.5s-15.5 -54.5 -15.5 -84.5v-2c0 -30 5.16699 -58.333 15.5 -85s25 -50 44 -70s41.333 -35.833 67 -47.5s54.167 -17.5 85.5 -17.5zM424 -12c-54 0 -103.667 9.5 -149 28.5
s-84.5 44.667 -117.5 77s-58.667 70.333 -77 114s-27.5 90.5 -27.5 140.5v2c0 50 9.33301 96.833 28 140.5s44.5 82 77.5 115s72.333 59 118 78s95.5 28.5 149.5 28.5s103.667 -9.5 149 -28.5s84.5 -44.667 117.5 -77s58.667 -70.333 77 -114s27.5 -90.5 27.5 -140.5v-2
c0 -50 -9.33301 -96.833 -28 -140.5s-44.5 -82 -77.5 -115s-72.333 -59 -118 -78s-95.5 -28.5 -149.5 -28.5z" />
    <glyph glyph-name="Ocircumflex" unicode="&#xd4;" horiz-adv-x="850" 
d="M353 912h144l123 -157h-117l-79 66l-79 -66h-115zM426 130c30.667 0 59 5.66699 85 17s48.167 27 66.5 47s32.666 43.167 42.999 69.5s15.5 54.5 15.5 84.5v2c0 30 -5.16699 58.333 -15.5 85s-25 50 -44 70s-41.5 35.833 -67.5 47.5s-54.333 17.5 -85 17.5
c-31.333 0 -59.833 -5.66699 -85.5 -17s-47.667 -27 -66 -47s-32.666 -43.167 -42.999 -69.5s-15.5 -54.5 -15.5 -84.5v-2c0 -30 5.16699 -58.333 15.5 -85s25 -50 44 -70s41.333 -35.833 67 -47.5s54.167 -17.5 85.5 -17.5zM424 -12c-54 0 -103.667 9.5 -149 28.5
s-84.5 44.667 -117.5 77s-58.667 70.333 -77 114s-27.5 90.5 -27.5 140.5v2c0 50 9.33301 96.833 28 140.5s44.5 82 77.5 115s72.333 59 118 78s95.5 28.5 149.5 28.5s103.667 -9.5 149 -28.5s84.5 -44.667 117.5 -77s58.667 -70.333 77 -114s27.5 -90.5 27.5 -140.5v-2
c0 -50 -9.33301 -96.833 -28 -140.5s-44.5 -82 -77.5 -115s-72.333 -59 -118 -78s-95.5 -28.5 -149.5 -28.5z" />
    <glyph glyph-name="Otilde" unicode="&#xd5;" horiz-adv-x="850" 
d="M219 770c6 20.667 12.499 39.5 19.499 56.5s15.333 31.5 25 43.5s21 21.333 34 28s28.167 10 45.5 10c15.333 0 30.166 -2 44.499 -6s27.833 -8.5 40.5 -13.5l35 -13.5c10.667 -4 20.667 -6 30 -6c15.333 0 26.833 4.16699 34.5 12.5s15.167 20.5 22.5 36.5l81 -25
c-11.333 -42 -26.166 -75.5 -44.499 -100.5s-44.833 -37.5 -79.5 -37.5c-15.333 0 -30.166 2 -44.499 6s-27.833 8.5 -40.5 13.5l-35.5 13.5c-11 4 -20.833 6 -29.5 6c-15.333 0 -26.833 -4.16699 -34.5 -12.5s-15.167 -20.5 -22.5 -36.5zM425.999 130
c30.667 0 59 5.66699 85 17s48.167 27 66.5 47s32.666 43.167 42.999 69.5s15.5 54.5 15.5 84.5v2c0 30 -5.16699 58.333 -15.5 85s-25 50 -44 70s-41.5 35.833 -67.5 47.5s-54.333 17.5 -85 17.5c-31.333 0 -59.833 -5.66699 -85.5 -17s-47.667 -27 -66 -47
s-32.666 -43.167 -42.999 -69.5s-15.5 -54.5 -15.5 -84.5v-2c0 -30 5.16699 -58.333 15.5 -85s25 -50 44 -70s41.333 -35.833 67 -47.5s54.167 -17.5 85.5 -17.5zM423.999 -12c-54 0 -103.667 9.5 -149 28.5s-84.5 44.667 -117.5 77s-58.667 70.333 -77 114
s-27.5 90.5 -27.5 140.5v2c0 50 9.33301 96.833 28 140.5s44.5 82 77.5 115s72.333 59 118 78s95.5 28.5 149.5 28.5s103.667 -9.5 149 -28.5s84.5 -44.667 117.5 -77s58.667 -70.333 77 -114s27.5 -90.5 27.5 -140.5v-2c0 -50 -9.33301 -96.833 -28 -140.5
s-44.5 -82 -77.5 -115s-72.333 -59 -118 -78s-95.5 -28.5 -149.5 -28.5z" />
    <glyph glyph-name="Odieresis" unicode="&#xd6;" horiz-adv-x="850" 
d="M245 890h146v-135h-146v135zM459 890h146v-135h-146v135zM426 130c30.667 0 59 5.66699 85 17s48.167 27 66.5 47s32.666 43.167 42.999 69.5s15.5 54.5 15.5 84.5v2c0 30 -5.16699 58.333 -15.5 85s-25 50 -44 70s-41.5 35.833 -67.5 47.5s-54.333 17.5 -85 17.5
c-31.333 0 -59.833 -5.66699 -85.5 -17s-47.667 -27 -66 -47s-32.666 -43.167 -42.999 -69.5s-15.5 -54.5 -15.5 -84.5v-2c0 -30 5.16699 -58.333 15.5 -85s25 -50 44 -70s41.333 -35.833 67 -47.5s54.167 -17.5 85.5 -17.5zM424 -12c-54 0 -103.667 9.5 -149 28.5
s-84.5 44.667 -117.5 77s-58.667 70.333 -77 114s-27.5 90.5 -27.5 140.5v2c0 50 9.33301 96.833 28 140.5s44.5 82 77.5 115s72.333 59 118 78s95.5 28.5 149.5 28.5s103.667 -9.5 149 -28.5s84.5 -44.667 117.5 -77s58.667 -70.333 77 -114s27.5 -90.5 27.5 -140.5v-2
c0 -50 -9.33301 -96.833 -28 -140.5s-44.5 -82 -77.5 -115s-72.333 -59 -118 -78s-95.5 -28.5 -149.5 -28.5z" />
    <glyph glyph-name="Oslash" unicode="&#xd8;" horiz-adv-x="850" 
d="M426 127c31.333 0 60 5.83203 86 17.499s48.5 27.5 67.5 47.5s33.667 43.5 44 70.5s15.5 55.5 15.5 85.5v2c0 44.667 -11.333 85.667 -34 123l-278 -322c14.667 -7.33301 30.167 -13.166 46.5 -17.499s33.833 -6.5 52.5 -6.5zM523 548.999
c-14.667 7.33301 -30.167 13.167 -46.5 17.5s-33.833 6.5 -52.5 6.5c-31.333 0 -60 -5.83301 -86 -17.5s-48.5 -27.5 -67.5 -47.5s-33.667 -43.5 -44 -70.5s-15.5 -55.5 -15.5 -85.5v-2c0 -44.667 11.333 -85.667 34 -123zM424 -12c-36 0 -70.167 4.33301 -102.5 13
s-62.5 21 -90.5 37l-39 -43h-147l98 113c-28.667 32 -50.834 68.5 -66.501 109.5s-23.5 84.5 -23.5 130.5v2c0 50 9.33301 96.833 28 140.5s44.5 82 77.5 115s72.333 59 118 78s95.5 28.5 149.5 28.5c36 0 70.167 -4.33301 102.5 -13s62.5 -21 90.5 -37l39 43h147l-98 -114
c28.667 -32 50.834 -68.333 66.501 -109s23.5 -84 23.5 -130v-2c0 -50 -9.33301 -96.833 -28 -140.5s-44.5 -82 -77.5 -115s-72.333 -59 -118 -78s-95.5 -28.5 -149.5 -28.5z" />
    <glyph glyph-name="Ugrave" unicode="&#xd9;" horiz-adv-x="756" 
d="M203 870l131 57l113 -177h-116zM376 -11c-94 0 -168 25.998 -222 77.998s-81 129.667 -81 233v400h154v-396c0 -57.333 13.333 -100.5 40 -129.5s63.667 -43.5 111 -43.5s84.333 14 111 42s40 70 40 126v401h154v-395c0 -53.333 -7.16699 -99.666 -21.5 -138.999
s-34.833 -72.166 -61.5 -98.499s-59 -46 -97 -59s-80.333 -19.5 -127 -19.5z" />
    <glyph glyph-name="Uacute" unicode="&#xda;" horiz-adv-x="756" 
d="M422 927l131 -57l-128 -120h-116zM376 -11c-94 0 -168 25.998 -222 77.998s-81 129.667 -81 233v400h154v-396c0 -57.333 13.333 -100.5 40 -129.5s63.667 -43.5 111 -43.5s84.333 14 111 42s40 70 40 126v401h154v-395c0 -53.333 -7.16699 -99.666 -21.5 -138.999
s-34.833 -72.166 -61.5 -98.499s-59 -46 -97 -59s-80.333 -19.5 -127 -19.5z" />
    <glyph glyph-name="Ucircumflex" unicode="&#xdb;" horiz-adv-x="756" 
d="M306 912h144l123 -157h-117l-79 66l-79 -66h-115zM376 -11c-94 0 -168 25.998 -222 77.998s-81 129.667 -81 233v400h154v-396c0 -57.333 13.333 -100.5 40 -129.5s63.667 -43.5 111 -43.5s84.333 14 111 42s40 70 40 126v401h154v-395
c0 -53.333 -7.16699 -99.666 -21.5 -138.999s-34.833 -72.166 -61.5 -98.499s-59 -46 -97 -59s-80.333 -19.5 -127 -19.5z" />
    <glyph glyph-name="Udieresis" unicode="&#xdc;" horiz-adv-x="756" 
d="M198 890h146v-135h-146v135zM412 890h146v-135h-146v135zM376 -11c-94 0 -168 25.998 -222 77.998s-81 129.667 -81 233v400h154v-396c0 -57.333 13.333 -100.5 40 -129.5s63.667 -43.5 111 -43.5s84.333 14 111 42s40 70 40 126v401h154v-395
c0 -53.333 -7.16699 -99.666 -21.5 -138.999s-34.833 -72.166 -61.5 -98.499s-59 -46 -97 -59s-80.333 -19.5 -127 -19.5z" />
    <glyph glyph-name="Yacute" unicode="&#xdd;" horiz-adv-x="716" 
d="M412 927l131 -57l-128 -120h-116zM281 276l-269 424h180l167 -281l170 281h175l-269 -421v-279h-154v276z" />
    <glyph glyph-name="Thorn" unicode="&#xde;" horiz-adv-x="673" 
d="M360 245c38.667 0 68.667 10.167 90 30.5s32 45.5 32 75.5v2c0 34.667 -11.167 61 -33.5 79s-52.833 27 -91.5 27h-119v-214h122zM84 700l154 0.00195312v-102h132c42 0 79.5 -5.83301 112.5 -17.5s61 -28.167 84 -49.5s40.667 -46.833 53 -76.5s18.5 -62.5 18.5 -98.5
v-2c0 -40.667 -7.33301 -76.334 -22 -107.001s-34.834 -56.334 -60.501 -77.001s-55.667 -36.167 -90 -46.5s-71.166 -15.5 -110.499 -15.5h-117v-108h-154v700z" />
    <glyph glyph-name="germandbls" unicode="&#xdf;" horiz-adv-x="620" 
d="M299 112c41.333 2 73.001 10.665 95.001 25.998s33 37.333 33 66v2c0 27.333 -12.167 49 -36.5 65s-54.833 26.667 -91.5 32v100c24.667 15.333 45.5 32.833 62.5 52.5s25.5 43.5 25.5 71.5v2c0 25.333 -7.16699 45 -21.5 59s-33.833 21 -58.5 21
c-26 0 -47.167 -9 -63.5 -27s-24.5 -42.333 -24.5 -73v-509h-151v503c0 36.667 5.83301 69.5 17.5 98.5s28.167 53.5 49.5 73.5s47.166 35.333 77.499 46s64.166 16 101.499 16c36 0 67.833 -5 95.5 -15s51 -23.667 70 -41s33.333 -37.833 43 -61.5s14.5 -49.167 14.5 -76.5
v-2c0 -21.333 -2.33301 -40.333 -7 -57s-11.167 -31.334 -19.5 -44.001s-18 -24 -29 -34s-22.833 -19.333 -35.5 -28c16.667 -7.33301 32.834 -16.166 48.501 -26.499s29.667 -22.666 42 -36.999s22.166 -30.833 29.499 -49.5s11 -40 11 -64v-2
c0 -33.333 -6.5 -62.833 -19.5 -88.5s-31.667 -47.167 -56 -64.5s-53.666 -30.166 -87.999 -38.499s-72.5 -11.5 -114.5 -9.5v114z" />
    <glyph glyph-name="agrave" unicode="&#xe0;" horiz-adv-x="592" 
d="M126 715l131 57l113 -177h-116zM266 95c36 0 64.833 8.66699 86.5 26s32.5 40 32.5 68v27c-13.333 6 -28.166 10.833 -44.499 14.5s-33.833 5.5 -52.5 5.5c-32.667 0 -58.334 -6.33301 -77.001 -19s-28 -31 -28 -55v-2c0 -20.667 7.66699 -36.667 23 -48
s35.333 -17 60 -17zM220 -10c-25.333 0 -49.165 3.5 -71.498 10.5s-41.833 17.5 -58.5 31.5s-29.834 31.167 -39.501 51.5s-14.5 43.833 -14.5 70.5v2c0 29.333 5.33301 54.666 16 75.999s25.5 39 44.5 53s41.667 24.5 68 31.5s55.5 10.5 87.5 10.5
c27.333 0 51.166 -2 71.499 -6s40.166 -9.33301 59.499 -16v9c0 32 -9.66699 56.333 -29 73s-48 25 -86 25c-29.333 0 -55.166 -2.5 -77.499 -7.5s-45.833 -12.167 -70.5 -21.5l-38 116c29.333 12.667 60 23 92 31s70.667 12 116 12c42 0 77.833 -5.16699 107.5 -15.5
s54.167 -25.166 73.5 -44.499c20 -20 34.667 -44.5 44 -73.5s14 -61.5 14 -97.5v-311h-147v58c-18.667 -20.667 -41 -37.167 -67 -49.5s-57.667 -18.5 -95 -18.5z" />
    <glyph glyph-name="aacute" unicode="&#xe1;" horiz-adv-x="592" 
d="M340 772l131 -57l-128 -120h-116zM266 95c36 0 64.833 8.66699 86.5 26s32.5 40 32.5 68v27c-13.333 6 -28.166 10.833 -44.499 14.5s-33.833 5.5 -52.5 5.5c-32.667 0 -58.334 -6.33301 -77.001 -19s-28 -31 -28 -55v-2c0 -20.667 7.66699 -36.667 23 -48
s35.333 -17 60 -17zM220 -10c-25.333 0 -49.165 3.5 -71.498 10.5s-41.833 17.5 -58.5 31.5s-29.834 31.167 -39.501 51.5s-14.5 43.833 -14.5 70.5v2c0 29.333 5.33301 54.666 16 75.999s25.5 39 44.5 53s41.667 24.5 68 31.5s55.5 10.5 87.5 10.5
c27.333 0 51.166 -2 71.499 -6s40.166 -9.33301 59.499 -16v9c0 32 -9.66699 56.333 -29 73s-48 25 -86 25c-29.333 0 -55.166 -2.5 -77.499 -7.5s-45.833 -12.167 -70.5 -21.5l-38 116c29.333 12.667 60 23 92 31s70.667 12 116 12c42 0 77.833 -5.16699 107.5 -15.5
s54.167 -25.166 73.5 -44.499c20 -20 34.667 -44.5 44 -73.5s14 -61.5 14 -97.5v-311h-147v58c-18.667 -20.667 -41 -37.167 -67 -49.5s-57.667 -18.5 -95 -18.5z" />
    <glyph glyph-name="acircumflex" unicode="&#xe2;" horiz-adv-x="592" 
d="M222 752h144l123 -157h-117l-79 66l-79 -66h-115zM266 95c36 0 64.833 8.66699 86.5 26s32.5 40 32.5 68v27c-13.333 6 -28.166 10.833 -44.499 14.5s-33.833 5.5 -52.5 5.5c-32.667 0 -58.334 -6.33301 -77.001 -19s-28 -31 -28 -55v-2
c0 -20.667 7.66699 -36.667 23 -48s35.333 -17 60 -17zM220 -10c-25.333 0 -49.165 3.5 -71.498 10.5s-41.833 17.5 -58.5 31.5s-29.834 31.167 -39.501 51.5s-14.5 43.833 -14.5 70.5v2c0 29.333 5.33301 54.666 16 75.999s25.5 39 44.5 53s41.667 24.5 68 31.5
s55.5 10.5 87.5 10.5c27.333 0 51.166 -2 71.499 -6s40.166 -9.33301 59.499 -16v9c0 32 -9.66699 56.333 -29 73s-48 25 -86 25c-29.333 0 -55.166 -2.5 -77.499 -7.5s-45.833 -12.167 -70.5 -21.5l-38 116c29.333 12.667 60 23 92 31s70.667 12 116 12
c42 0 77.833 -5.16699 107.5 -15.5s54.167 -25.166 73.5 -44.499c20 -20 34.667 -44.5 44 -73.5s14 -61.5 14 -97.5v-311h-147v58c-18.667 -20.667 -41 -37.167 -67 -49.5s-57.667 -18.5 -95 -18.5z" />
    <glyph glyph-name="atilde" unicode="&#xe3;" horiz-adv-x="592" 
d="M90 610c6 20.667 12.499 39.5 19.499 56.5s15.333 31.5 25 43.5s21 21.333 34 28s28.167 10 45.5 10c15.333 0 30.166 -2 44.499 -6s27.833 -8.5 40.5 -13.5l35 -13.5c10.667 -4 20.667 -6 30 -6c15.333 0 26.833 4.16699 34.5 12.5s15.167 20.5 22.5 36.5l81 -25
c-11.333 -42 -26.166 -75.5 -44.499 -100.5s-44.833 -37.5 -79.5 -37.5c-15.333 0 -30.166 2 -44.499 6s-27.833 8.5 -40.5 13.5l-35.5 13.5c-11 4 -20.833 6 -29.5 6c-15.333 0 -26.833 -4.16699 -34.5 -12.5s-15.167 -20.5 -22.5 -36.5zM265.999 95
c36 0 64.833 8.66699 86.5 26s32.5 40 32.5 68v27c-13.333 6 -28.166 10.833 -44.499 14.5s-33.833 5.5 -52.5 5.5c-32.667 0 -58.334 -6.33301 -77.001 -19s-28 -31 -28 -55v-2c0 -20.667 7.66699 -36.667 23 -48s35.333 -17 60 -17zM219.999 -10
c-25.333 0 -49.165 3.5 -71.498 10.5s-41.833 17.5 -58.5 31.5s-29.834 31.167 -39.501 51.5s-14.5 43.833 -14.5 70.5v2c0 29.333 5.33301 54.666 16 75.999s25.5 39 44.5 53s41.667 24.5 68 31.5s55.5 10.5 87.5 10.5c27.333 0 51.166 -2 71.499 -6
s40.166 -9.33301 59.499 -16v9c0 32 -9.66699 56.333 -29 73s-48 25 -86 25c-29.333 0 -55.166 -2.5 -77.499 -7.5s-45.833 -12.167 -70.5 -21.5l-38 116c29.333 12.667 60 23 92 31s70.667 12 116 12c42 0 77.833 -5.16699 107.5 -15.5s54.167 -25.166 73.5 -44.499
c20 -20 34.667 -44.5 44 -73.5s14 -61.5 14 -97.5v-311h-147v58c-18.667 -20.667 -41 -37.167 -67 -49.5s-57.667 -18.5 -95 -18.5z" />
    <glyph glyph-name="adieresis" unicode="&#xe4;" horiz-adv-x="592" 
d="M114 730h146v-135h-146v135zM328 730h146v-135h-146v135zM266 95c36 0 64.833 8.66699 86.5 26s32.5 40 32.5 68v27c-13.333 6 -28.166 10.833 -44.499 14.5s-33.833 5.5 -52.5 5.5c-32.667 0 -58.334 -6.33301 -77.001 -19s-28 -31 -28 -55v-2
c0 -20.667 7.66699 -36.667 23 -48s35.333 -17 60 -17zM220 -10c-25.333 0 -49.165 3.5 -71.498 10.5s-41.833 17.5 -58.5 31.5s-29.834 31.167 -39.501 51.5s-14.5 43.833 -14.5 70.5v2c0 29.333 5.33301 54.666 16 75.999s25.5 39 44.5 53s41.667 24.5 68 31.5
s55.5 10.5 87.5 10.5c27.333 0 51.166 -2 71.499 -6s40.166 -9.33301 59.499 -16v9c0 32 -9.66699 56.333 -29 73s-48 25 -86 25c-29.333 0 -55.166 -2.5 -77.499 -7.5s-45.833 -12.167 -70.5 -21.5l-38 116c29.333 12.667 60 23 92 31s70.667 12 116 12
c42 0 77.833 -5.16699 107.5 -15.5s54.167 -25.166 73.5 -44.499c20 -20 34.667 -44.5 44 -73.5s14 -61.5 14 -97.5v-311h-147v58c-18.667 -20.667 -41 -37.167 -67 -49.5s-57.667 -18.5 -95 -18.5z" />
    <glyph glyph-name="aring" unicode="&#xe5;" horiz-adv-x="592" 
d="M294 648c17.333 0 32 6 44 18s18 26.333 18 43v2c0 16.667 -6 31 -18 43s-26.667 18 -44 18s-32 -6 -44 -18s-18 -26.333 -18 -43v-2c0 -16.667 6 -31 18 -43s26.667 -18 44 -18zM294 593c-16 0 -31.333 3.16699 -46 9.5s-27.5 14.666 -38.5 24.999
s-19.833 22.5 -26.5 36.5s-10 29 -10 45v2c0 16 3.33301 31 10 45s15.5 26.167 26.5 36.5s23.833 18.666 38.5 24.999s30 9.5 46 9.5s31.333 -3.16699 46 -9.5s27.5 -14.666 38.5 -24.999s19.833 -22.5 26.5 -36.5s10 -29 10 -45v-2c0 -16 -3.33301 -31 -10 -45
s-15.5 -26.167 -26.5 -36.5s-23.833 -18.666 -38.5 -24.999s-30 -9.5 -46 -9.5zM266 95c36 0 64.833 8.66699 86.5 26s32.5 40 32.5 68v27c-13.333 6 -28.166 10.833 -44.499 14.5s-33.833 5.5 -52.5 5.5c-32.667 0 -58.334 -6.33301 -77.001 -19s-28 -31 -28 -55v-2
c0 -20.667 7.66699 -36.667 23 -48s35.333 -17 60 -17zM220 -10c-25.333 0 -49.165 3.5 -71.498 10.5s-41.833 17.5 -58.5 31.5s-29.834 31.167 -39.501 51.5s-14.5 43.833 -14.5 70.5v2c0 29.333 5.33301 54.666 16 75.999s25.5 39 44.5 53s41.667 24.5 68 31.5
s55.5 10.5 87.5 10.5c27.333 0 51.166 -2 71.499 -6s40.166 -9.33301 59.499 -16v9c0 32 -9.66699 56.333 -29 73s-48 25 -86 25c-29.333 0 -55.166 -2.5 -77.499 -7.5s-45.833 -12.167 -70.5 -21.5l-38 116c29.333 12.667 60 23 92 31s70.667 12 116 12
c42 0 77.833 -5.16699 107.5 -15.5s54.167 -25.166 73.5 -44.499c20 -20 34.667 -44.5 44 -73.5s14 -61.5 14 -97.5v-311h-147v58c-18.667 -20.667 -41 -37.167 -67 -49.5s-57.667 -18.5 -95 -18.5z" />
    <glyph glyph-name="ae" unicode="&#xe6;" horiz-adv-x="951" 
d="M266 97c22.667 0 45.499 4.16699 68.499 12.5s45.833 21.166 68.5 38.499c-4.66699 10.667 -8.66699 21.667 -12 33s-5.66602 23.333 -6.99902 36c-13.333 5.33301 -28.166 9.83301 -44.499 13.5s-33.5 5.5 -51.5 5.5c-32.667 0 -58.334 -6.33301 -77.001 -19
s-28 -31 -28 -55v-2c0 -19.333 8 -34.666 24 -45.999s35.667 -17 59 -17zM757.999 310c-4.66699 34 -16.667 61.501 -36 82.501s-45 31.5 -77 31.5s-57.833 -10.333 -77.5 -31s-32.5 -48.334 -38.5 -83.001h229zM237.999 -9.99902
c-29.333 0 -56.3301 3.66895 -80.9971 11.002s-46 18 -64 32s-32 31.167 -42 51.5s-15 43.5 -15 69.5v2c0 29.333 5.33301 54.666 16 75.999s25.5 39 44.5 53s41.667 24.5 68 31.5s55.5 10.5 87.5 10.5c27.333 0 51.166 -2 71.499 -6s40.166 -9.33301 59.499 -16v9
c0 32 -9.66699 56.333 -29 73s-48 25 -86 25c-29.333 0 -55.166 -2.5 -77.499 -7.5s-45.833 -12.167 -70.5 -21.5l-38 116c29.333 12.667 60 23 92 31s70.667 12 116 12c44 0 80.833 -5.83301 110.5 -17.5s53.5 -28.5 71.5 -50.5c22 22.667 47.833 40.334 77.5 53.001
s62.834 19 99.501 19c43.333 0 81.166 -8 113.499 -24s59.166 -37.5 80.499 -64.5s37.166 -58 47.499 -93s15.5 -71.5 15.5 -109.5c0 -6 -0.166992 -12.333 -0.5 -19s-0.833008 -13.667 -1.5 -21h-373c7.33301 -34.667 22.5 -60.834 45.5 -78.501s51.5 -26.5 85.5 -26.5
c25.333 0 48 4.33301 68 13s40.667 22.667 62 42l87 -77c-25.333 -31.333 -56 -55.833 -92 -73.5s-78.333 -26.5 -127 -26.5c-41.333 0 -79.333 7.16699 -114 21.5s-64.667 34.166 -90 59.499c-30.667 -22.667 -64 -41.5 -100 -56.5s-75.333 -22.5 -118 -22.5z" />
    <glyph glyph-name="ccedilla" unicode="&#xe7;" horiz-adv-x="571" 
d="M154 -120l82 120.002c-29.333 8.66699 -55.833 21.5 -79.5 38.5s-44 37 -61 60s-30.167 48.667 -39.5 77s-14 58.166 -14 89.499v2c0 38 7 74 21 108s33.333 63.667 58 89s54.167 45.333 88.5 60s72.166 22 113.499 22c50.667 0 92.667 -8 126 -24s62.666 -38 87.999 -66
l-93 -100c-17.333 18 -35.166 32.333 -53.499 43s-41.166 16 -68.499 16c-19.333 0 -36.833 -3.83301 -52.5 -11.5s-29.334 -18.167 -41.001 -31.5s-20.667 -28.833 -27 -46.5s-9.5 -36.5 -9.5 -56.5v-2c0 -20.667 3.16699 -40 9.5 -58s15.5 -33.667 27.5 -47
s26.333 -23.833 43 -31.5s35.334 -11.5 56.001 -11.5c25.333 0 47.5 5.16699 66.5 15.5s37.833 24.166 56.5 41.499l89 -90c-24 -26 -50.833 -47.833 -80.5 -65.5s-67.5 -28.167 -113.5 -31.5l-65 -162z" />
    <glyph glyph-name="egrave" unicode="&#xe8;" horiz-adv-x="613" 
d="M122 715l131 57l113 -177h-116zM420 310c-4.66699 34 -16.667 61.501 -36 82.501s-45 31.5 -77 31.5s-57.833 -10.333 -77.5 -31s-32.5 -48.334 -38.5 -83.001h229zM322 -11.999c-40 0 -77.167 6.66699 -111.5 20s-64 32.333 -89 57s-44.5 53.834 -58.5 87.501
s-21 71.167 -21 112.5v2c0 38 6.5 74 19.5 108s31.167 63.667 54.5 89s51.166 45.333 83.499 60s68.166 22 107.499 22c44.667 0 83.334 -8 116.001 -24s59.834 -37.5 81.501 -64.5s37.667 -58 48 -93s15.5 -71.5 15.5 -109.5c0 -6 -0.166992 -12.333 -0.5 -19
s-0.833008 -13.667 -1.5 -21h-373c7.33301 -34.667 22.5 -60.834 45.5 -78.501s51.5 -26.5 85.5 -26.5c25.333 0 48 4.33301 68 13s40.667 22.667 62 42l87 -77c-25.333 -31.333 -56 -55.833 -92 -73.5s-78.333 -26.5 -127 -26.5z" />
    <glyph glyph-name="eacute" unicode="&#xe9;" horiz-adv-x="613" 
d="M359 772l131 -57l-128 -120h-116zM420 310c-4.66699 34 -16.667 61.501 -36 82.501s-45 31.5 -77 31.5s-57.833 -10.333 -77.5 -31s-32.5 -48.334 -38.5 -83.001h229zM322 -11.999c-40 0 -77.167 6.66699 -111.5 20s-64 32.333 -89 57s-44.5 53.834 -58.5 87.501
s-21 71.167 -21 112.5v2c0 38 6.5 74 19.5 108s31.167 63.667 54.5 89s51.166 45.333 83.499 60s68.166 22 107.499 22c44.667 0 83.334 -8 116.001 -24s59.834 -37.5 81.501 -64.5s37.667 -58 48 -93s15.5 -71.5 15.5 -109.5c0 -6 -0.166992 -12.333 -0.5 -19
s-0.833008 -13.667 -1.5 -21h-373c7.33301 -34.667 22.5 -60.834 45.5 -78.501s51.5 -26.5 85.5 -26.5c25.333 0 48 4.33301 68 13s40.667 22.667 62 42l87 -77c-25.333 -31.333 -56 -55.833 -92 -73.5s-78.333 -26.5 -127 -26.5z" />
    <glyph glyph-name="ecircumflex" unicode="&#xea;" horiz-adv-x="613" 
d="M234 752h144l123 -157h-117l-79 66l-79 -66h-115zM420 310c-4.66699 34 -16.667 61.501 -36 82.501s-45 31.5 -77 31.5s-57.833 -10.333 -77.5 -31s-32.5 -48.334 -38.5 -83.001h229zM322 -11.999c-40 0 -77.167 6.66699 -111.5 20s-64 32.333 -89 57
s-44.5 53.834 -58.5 87.501s-21 71.167 -21 112.5v2c0 38 6.5 74 19.5 108s31.167 63.667 54.5 89s51.166 45.333 83.499 60s68.166 22 107.499 22c44.667 0 83.334 -8 116.001 -24s59.834 -37.5 81.501 -64.5s37.667 -58 48 -93s15.5 -71.5 15.5 -109.5
c0 -6 -0.166992 -12.333 -0.5 -19s-0.833008 -13.667 -1.5 -21h-373c7.33301 -34.667 22.5 -60.834 45.5 -78.501s51.5 -26.5 85.5 -26.5c25.333 0 48 4.33301 68 13s40.667 22.667 62 42l87 -77c-25.333 -31.333 -56 -55.833 -92 -73.5s-78.333 -26.5 -127 -26.5z" />
    <glyph glyph-name="edieresis" unicode="&#xeb;" horiz-adv-x="613" 
d="M126 730h146v-135h-146v135zM340 730h146v-135h-146v135zM420 310c-4.66699 34 -16.667 61.501 -36 82.501s-45 31.5 -77 31.5s-57.833 -10.333 -77.5 -31s-32.5 -48.334 -38.5 -83.001h229zM322 -11.999c-40 0 -77.167 6.66699 -111.5 20s-64 32.333 -89 57
s-44.5 53.834 -58.5 87.501s-21 71.167 -21 112.5v2c0 38 6.5 74 19.5 108s31.167 63.667 54.5 89s51.166 45.333 83.499 60s68.166 22 107.499 22c44.667 0 83.334 -8 116.001 -24s59.834 -37.5 81.501 -64.5s37.667 -58 48 -93s15.5 -71.5 15.5 -109.5
c0 -6 -0.166992 -12.333 -0.5 -19s-0.833008 -13.667 -1.5 -21h-373c7.33301 -34.667 22.5 -60.834 45.5 -78.501s51.5 -26.5 85.5 -26.5c25.333 0 48 4.33301 68 13s40.667 22.667 62 42l87 -77c-25.333 -31.333 -56 -55.833 -92 -73.5s-78.333 -26.5 -127 -26.5z" />
    <glyph glyph-name="igrave" unicode="&#xec;" horiz-adv-x="302" 
d="M-27 715l131 57l113 -177h-116zM75 536h152v-536h-152v536z" />
    <glyph glyph-name="iacute" unicode="&#xed;" horiz-adv-x="302" 
d="M198 772l131 -57l-128 -120h-116zM75 536h152v-536h-152v536z" />
    <glyph glyph-name="icircumflex" unicode="&#xee;" horiz-adv-x="302" 
d="M79 752h144l123 -157h-117l-79 66l-79 -66h-115zM75 536h152v-536h-152v536z" />
    <glyph glyph-name="idieresis" unicode="&#xef;" horiz-adv-x="302" 
d="M-29 730h146v-135h-146v135zM185 730h146v-135h-146v135zM75 536h152v-536h-152v536z" />
    <glyph glyph-name="eth" unicode="&#xf0;" horiz-adv-x="648" 
d="M324 116c20.667 0 39.167 3.33008 55.5 9.99707s30.166 16 41.499 28s20 26 26 42s9 33 9 51v2c0 18 -3.16699 34.833 -9.5 50.5s-15.166 29.334 -26.499 41.001s-25.333 20.834 -42 27.501s-35 10 -55 10c-40.667 0 -73 -12.167 -97 -36.5s-36 -55.166 -36 -92.499v-2
c0 -18 3.16699 -35 9.5 -51s15.5 -30 27.5 -42s26.167 -21.333 42.5 -28s34.5 -10 54.5 -10zM319 -12.0029c-40 0 -76.998 6.83105 -110.998 20.498s-63.167 32.167 -87.5 55.5s-43.5 51 -57.5 83s-21 66.333 -21 103v2c0 34.667 5.66699 66.334 17 95.001
s27.166 53.334 47.499 74.001s44.5 36.667 72.5 48s58.667 17 92 17c23.333 0 44.333 -2.5 63 -7.5s38.667 -13.167 60 -24.5l-87 116l-114 -47l-56 75l115 46l-64 86h171l23 -33l100 41l55 -75l-102 -41l81 -115c31.333 -44.667 53.833 -85.667 67.5 -123
s20.5 -77.333 20.5 -120v-2c0 -37.333 -6.33301 -72.5 -19 -105.5s-31.334 -62 -56.001 -87s-54.667 -44.833 -90 -59.5s-75.333 -22 -120 -22z" />
    <glyph glyph-name="ntilde" unicode="&#xf1;" horiz-adv-x="623" 
d="M110 610c6 20.667 12.499 39.5 19.499 56.5s15.333 31.5 25 43.5s21 21.333 34 28s28.167 10 45.5 10c15.333 0 30.166 -2 44.499 -6s27.833 -8.5 40.5 -13.5l35 -13.5c10.667 -4 20.667 -6 30 -6c15.333 0 26.833 4.16699 34.5 12.5s15.167 20.5 22.5 36.5l81 -25
c-11.333 -42 -26.166 -75.5 -44.499 -100.5s-44.833 -37.5 -79.5 -37.5c-15.333 0 -30.166 2 -44.499 6s-27.833 8.5 -40.5 13.5l-35.5 13.5c-11 4 -20.833 6 -29.5 6c-15.333 0 -26.833 -4.16699 -34.5 -12.5s-15.167 -20.5 -22.5 -36.5zM67.999 536l152.001 0.000976562
v-76c8.66699 11.333 18.167 22.166 28.5 32.499s21.833 19.5 34.5 27.5s26.667 14.333 42 19s32.666 7 51.999 7c58 0 102.833 -17.667 134.5 -53s47.5 -84 47.5 -146v-347h-152v299c0 36 -8 63.167 -24 81.5s-38.667 27.5 -68 27.5s-52.5 -9.16699 -69.5 -27.5
s-25.5 -45.5 -25.5 -81.5v-299h-152v536z" />
    <glyph glyph-name="ograve" unicode="&#xf2;" horiz-adv-x="664" 
d="M146 715l131 57l113 -177h-116zM333 119c22 0 41.5 3.83301 58.5 11.5s31.5 18.167 43.5 31.5s21.167 28.833 27.5 46.5s9.5 36.5 9.5 56.5v2c0 20 -3.33301 38.833 -10 56.5s-16.334 33.334 -29.001 47.001s-27.667 24.5 -45 32.5s-36.333 12 -57 12
c-22 0 -41.5 -3.83301 -58.5 -11.5s-31.5 -18.167 -43.5 -31.5s-21.167 -28.833 -27.5 -46.5s-9.5 -36.5 -9.5 -56.5v-2c0 -20 3.33301 -38.833 10 -56.5s16.334 -33.334 29.001 -47.001s27.5 -24.5 44.5 -32.5s36.167 -12 57.5 -12zM331 -12
c-41.333 0 -79.666 7.16699 -114.999 21.5s-65.833 34 -91.5 59s-45.834 54.333 -60.501 88s-22 69.834 -22 108.501v2c0 38.667 7.33301 74.834 22 108.501s35 63.167 61 88.5s56.667 45.333 92 60s74 22 116 22c41.333 0 79.666 -7.16699 114.999 -21.5
s65.833 -34 91.5 -59s45.834 -54.333 60.501 -88s22 -69.834 22 -108.501v-2c0 -38.667 -7.33301 -74.834 -22 -108.501s-35 -63.167 -61 -88.5s-56.667 -45.333 -92 -60s-74 -22 -116 -22z" />
    <glyph glyph-name="oacute" unicode="&#xf3;" horiz-adv-x="664" 
d="M387 772l131 -57l-128 -120h-116zM333 119c22 0 41.5 3.83301 58.5 11.5s31.5 18.167 43.5 31.5s21.167 28.833 27.5 46.5s9.5 36.5 9.5 56.5v2c0 20 -3.33301 38.833 -10 56.5s-16.334 33.334 -29.001 47.001s-27.667 24.5 -45 32.5s-36.333 12 -57 12
c-22 0 -41.5 -3.83301 -58.5 -11.5s-31.5 -18.167 -43.5 -31.5s-21.167 -28.833 -27.5 -46.5s-9.5 -36.5 -9.5 -56.5v-2c0 -20 3.33301 -38.833 10 -56.5s16.334 -33.334 29.001 -47.001s27.5 -24.5 44.5 -32.5s36.167 -12 57.5 -12zM331 -12
c-41.333 0 -79.666 7.16699 -114.999 21.5s-65.833 34 -91.5 59s-45.834 54.333 -60.501 88s-22 69.834 -22 108.501v2c0 38.667 7.33301 74.834 22 108.501s35 63.167 61 88.5s56.667 45.333 92 60s74 22 116 22c41.333 0 79.666 -7.16699 114.999 -21.5
s65.833 -34 91.5 -59s45.834 -54.333 60.501 -88s22 -69.834 22 -108.501v-2c0 -38.667 -7.33301 -74.834 -22 -108.501s-35 -63.167 -61 -88.5s-56.667 -45.333 -92 -60s-74 -22 -116 -22z" />
    <glyph glyph-name="ocircumflex" unicode="&#xf4;" horiz-adv-x="664" 
d="M260 752h144l123 -157h-117l-79 66l-79 -66h-115zM333 119c22 0 41.5 3.83301 58.5 11.5s31.5 18.167 43.5 31.5s21.167 28.833 27.5 46.5s9.5 36.5 9.5 56.5v2c0 20 -3.33301 38.833 -10 56.5s-16.334 33.334 -29.001 47.001s-27.667 24.5 -45 32.5s-36.333 12 -57 12
c-22 0 -41.5 -3.83301 -58.5 -11.5s-31.5 -18.167 -43.5 -31.5s-21.167 -28.833 -27.5 -46.5s-9.5 -36.5 -9.5 -56.5v-2c0 -20 3.33301 -38.833 10 -56.5s16.334 -33.334 29.001 -47.001s27.5 -24.5 44.5 -32.5s36.167 -12 57.5 -12zM331 -12
c-41.333 0 -79.666 7.16699 -114.999 21.5s-65.833 34 -91.5 59s-45.834 54.333 -60.501 88s-22 69.834 -22 108.501v2c0 38.667 7.33301 74.834 22 108.501s35 63.167 61 88.5s56.667 45.333 92 60s74 22 116 22c41.333 0 79.666 -7.16699 114.999 -21.5
s65.833 -34 91.5 -59s45.834 -54.333 60.501 -88s22 -69.834 22 -108.501v-2c0 -38.667 -7.33301 -74.834 -22 -108.501s-35 -63.167 -61 -88.5s-56.667 -45.333 -92 -60s-74 -22 -116 -22z" />
    <glyph glyph-name="otilde" unicode="&#xf5;" horiz-adv-x="664" 
d="M126 610c6 20.667 12.499 39.5 19.499 56.5s15.333 31.5 25 43.5s21 21.333 34 28s28.167 10 45.5 10c15.333 0 30.166 -2 44.499 -6s27.833 -8.5 40.5 -13.5l35 -13.5c10.667 -4 20.667 -6 30 -6c15.333 0 26.833 4.16699 34.5 12.5s15.167 20.5 22.5 36.5l81 -25
c-11.333 -42 -26.166 -75.5 -44.499 -100.5s-44.833 -37.5 -79.5 -37.5c-15.333 0 -30.166 2 -44.499 6s-27.833 8.5 -40.5 13.5l-35.5 13.5c-11 4 -20.833 6 -29.5 6c-15.333 0 -26.833 -4.16699 -34.5 -12.5s-15.167 -20.5 -22.5 -36.5zM332.999 119
c22 0 41.5 3.83301 58.5 11.5s31.5 18.167 43.5 31.5s21.167 28.833 27.5 46.5s9.5 36.5 9.5 56.5v2c0 20 -3.33301 38.833 -10 56.5s-16.334 33.334 -29.001 47.001s-27.667 24.5 -45 32.5s-36.333 12 -57 12c-22 0 -41.5 -3.83301 -58.5 -11.5s-31.5 -18.167 -43.5 -31.5
s-21.167 -28.833 -27.5 -46.5s-9.5 -36.5 -9.5 -56.5v-2c0 -20 3.33301 -38.833 10 -56.5s16.334 -33.334 29.001 -47.001s27.5 -24.5 44.5 -32.5s36.167 -12 57.5 -12zM330.999 -12c-41.333 0 -79.666 7.16699 -114.999 21.5s-65.833 34 -91.5 59
s-45.834 54.333 -60.501 88s-22 69.834 -22 108.501v2c0 38.667 7.33301 74.834 22 108.501s35 63.167 61 88.5s56.667 45.333 92 60s74 22 116 22c41.333 0 79.666 -7.16699 114.999 -21.5s65.833 -34 91.5 -59s45.834 -54.333 60.501 -88s22 -69.834 22 -108.501v-2
c0 -38.667 -7.33301 -74.834 -22 -108.501s-35 -63.167 -61 -88.5s-56.667 -45.333 -92 -60s-74 -22 -116 -22z" />
    <glyph glyph-name="odieresis" unicode="&#xf6;" horiz-adv-x="664" 
d="M152 730h146v-135h-146v135zM366 730h146v-135h-146v135zM333 119c22 0 41.5 3.83301 58.5 11.5s31.5 18.167 43.5 31.5s21.167 28.833 27.5 46.5s9.5 36.5 9.5 56.5v2c0 20 -3.33301 38.833 -10 56.5s-16.334 33.334 -29.001 47.001s-27.667 24.5 -45 32.5
s-36.333 12 -57 12c-22 0 -41.5 -3.83301 -58.5 -11.5s-31.5 -18.167 -43.5 -31.5s-21.167 -28.833 -27.5 -46.5s-9.5 -36.5 -9.5 -56.5v-2c0 -20 3.33301 -38.833 10 -56.5s16.334 -33.334 29.001 -47.001s27.5 -24.5 44.5 -32.5s36.167 -12 57.5 -12zM331 -12
c-41.333 0 -79.666 7.16699 -114.999 21.5s-65.833 34 -91.5 59s-45.834 54.333 -60.501 88s-22 69.834 -22 108.501v2c0 38.667 7.33301 74.834 22 108.501s35 63.167 61 88.5s56.667 45.333 92 60s74 22 116 22c41.333 0 79.666 -7.16699 114.999 -21.5
s65.833 -34 91.5 -59s45.834 -54.333 60.501 -88s22 -69.834 22 -108.501v-2c0 -38.667 -7.33301 -74.834 -22 -108.501s-35 -63.167 -61 -88.5s-56.667 -45.333 -92 -60s-74 -22 -116 -22z" />
    <glyph glyph-name="oslash" unicode="&#xf8;" horiz-adv-x="664" 
d="M333 115c22.667 0 42.834 4 60.501 12s32.667 18.833 45 32.5s21.666 29.667 27.999 48s9.5 37.5 9.5 57.5v2c0 24 -5.33301 47.333 -16 70l-184 -211c18 -7.33301 37 -11 57 -11zM388 407c-17.333 8 -36.333 12 -57 12c-22.667 0 -42.834 -4 -60.501 -12
s-32.667 -18.833 -45 -32.5s-21.666 -29.667 -27.999 -48s-9.5 -37.5 -9.5 -57.5v-2c0 -24 5.33301 -47.333 16 -70zM331 -12c-26.667 0 -51.999 3 -75.999 9s-46.667 14.667 -68 26l-27 -28h-133l80 92c-20.667 24 -36.667 51.167 -48 81.5s-17 62.5 -17 96.5v2
c0 38.667 7.33301 74.834 22 108.501s35 63.167 61 88.5s56.667 45.333 92 60s74 22 116 22c26.667 0 52 -3 76 -9s46.333 -14.667 67 -26l28 30h133l-25 -29l-25.5 -29.5l-30.5 -34.5c21.333 -24 37.666 -51.167 48.999 -81.5s17 -62.833 17 -97.5v-2
c0 -38.667 -7.33301 -74.834 -22 -108.501s-35 -63.167 -61 -88.5s-56.667 -45.333 -92 -60s-74 -22 -116 -22z" />
    <glyph glyph-name="ugrave" unicode="&#xf9;" horiz-adv-x="623" 
d="M141 715l131 57l113 -177h-116zM246 -10c-58 0 -102.834 17.666 -134.501 52.999s-47.5 84 -47.5 146v347h152v-299c0 -36 8 -63.167 24 -81.5s38.667 -27.5 68 -27.5s52.5 9.16699 69.5 27.5s25.5 45.5 25.5 81.5v299h152v-536h-152v76
c-8.66699 -11.333 -18.167 -22.166 -28.5 -32.499s-21.833 -19.5 -34.5 -27.5s-26.667 -14.333 -42 -19s-32.666 -7 -51.999 -7z" />
    <glyph glyph-name="uacute" unicode="&#xfa;" horiz-adv-x="623" 
d="M350 772l131 -57l-128 -120h-116zM246 -10c-58 0 -102.834 17.666 -134.501 52.999s-47.5 84 -47.5 146v347h152v-299c0 -36 8 -63.167 24 -81.5s38.667 -27.5 68 -27.5s52.5 9.16699 69.5 27.5s25.5 45.5 25.5 81.5v299h152v-536h-152v76
c-8.66699 -11.333 -18.167 -22.166 -28.5 -32.499s-21.833 -19.5 -34.5 -27.5s-26.667 -14.333 -42 -19s-32.666 -7 -51.999 -7z" />
    <glyph glyph-name="ucircumflex" unicode="&#xfb;" horiz-adv-x="623" 
d="M239 752h144l123 -157h-117l-79 66l-79 -66h-115zM246 -10c-58 0 -102.834 17.666 -134.501 52.999s-47.5 84 -47.5 146v347h152v-299c0 -36 8 -63.167 24 -81.5s38.667 -27.5 68 -27.5s52.5 9.16699 69.5 27.5s25.5 45.5 25.5 81.5v299h152v-536h-152v76
c-8.66699 -11.333 -18.167 -22.166 -28.5 -32.499s-21.833 -19.5 -34.5 -27.5s-26.667 -14.333 -42 -19s-32.666 -7 -51.999 -7z" />
    <glyph glyph-name="udieresis" unicode="&#xfc;" horiz-adv-x="623" 
d="M131 730h146v-135h-146v135zM345 730h146v-135h-146v135zM246 -10c-58 0 -102.834 17.666 -134.501 52.999s-47.5 84 -47.5 146v347h152v-299c0 -36 8 -63.167 24 -81.5s38.667 -27.5 68 -27.5s52.5 9.16699 69.5 27.5s25.5 45.5 25.5 81.5v299h152v-536h-152v76
c-8.66699 -11.333 -18.167 -22.166 -28.5 -32.499s-21.833 -19.5 -34.5 -27.5s-26.667 -14.333 -42 -19s-32.666 -7 -51.999 -7z" />
    <glyph glyph-name="yacute" unicode="&#xfd;" horiz-adv-x="600" 
d="M342 772l131 -57l-128 -120h-116zM196 -163c-28 0 -52.6689 3.33301 -74.002 10s-41.666 15.667 -60.999 27l51 110c10 -6 20.833 -11 32.5 -15s22.5 -6 32.5 -6c13.333 0 23.833 2.5 31.5 7.5s14.834 14.167 21.501 27.5l-210 538h161l122 -365l117 365h158l-206 -549
c-10 -27.333 -20.667 -50.5 -32 -69.5s-23.833 -34.5 -37.5 -46.5s-29.167 -20.667 -46.5 -26s-37.333 -8 -60 -8z" />
    <glyph glyph-name="thorn" unicode="&#xfe;" horiz-adv-x="675" 
d="M348 119c18 0 34.833 3.5 50.5 10.5s29.5 17 41.5 30s21.5 28.5 28.5 46.5s10.5 38.333 10.5 61v2c0 22 -3.5 42.167 -10.5 60.5s-16.5 34 -28.5 47s-25.833 23 -41.5 30s-32.5 10.5 -50.5 10.5s-34.833 -3.5 -50.5 -10.5s-29.334 -17 -41.001 -30s-21 -28.667 -28 -47
s-10.5 -38.5 -10.5 -60.5v-2c0 -22 3.5 -42.167 10.5 -60.5s16.333 -34 28 -47s25.334 -23 41.001 -30s32.5 -10.5 50.5 -10.5zM68 730l151.999 0.000976562v-271c18.667 25.333 41.167 46.166 67.5 62.499s59.5 24.5 99.5 24.5c31.333 0 61.666 -6 90.999 -18
s55.333 -29.833 78 -53.5s40.834 -52.667 54.501 -87s20.5 -73.833 20.5 -118.5v-2c0 -44.667 -6.83301 -84.167 -20.5 -118.5s-31.667 -63.333 -54 -87s-48.166 -41.5 -77.499 -53.5s-60 -18 -92 -18c-40.667 0 -74.167 8 -100.5 24s-48.5 34.667 -66.5 56v-230h-152v890z
" />
    <glyph glyph-name="ydieresis" unicode="&#xff;" horiz-adv-x="600" 
d="M120 730h146v-135h-146v135zM334 730h146v-135h-146v135zM196 -163c-28 0 -52.6689 3.33301 -74.002 10s-41.666 15.667 -60.999 27l51 110c10 -6 20.833 -11 32.5 -15s22.5 -6 32.5 -6c13.333 0 23.833 2.5 31.5 7.5s14.834 14.167 21.501 27.5l-210 538h161l122 -365
l117 365h158l-206 -549c-10 -27.333 -20.667 -50.5 -32 -69.5s-23.833 -34.5 -37.5 -46.5s-29.167 -20.667 -46.5 -26s-37.333 -8 -60 -8z" />
    <glyph glyph-name="dotlessi" unicode="&#x131;" horiz-adv-x="302" 
d="M75 536h152v-536h-152v536z" />
    <glyph glyph-name="Lslash" unicode="&#x141;" horiz-adv-x="649" 
d="M114 262l-75 -22v143l75 22v295h152v-249l192 57v-143l-192 -57v-168h351v-140h-503v262z" />
    <glyph glyph-name="lslash" unicode="&#x142;" horiz-adv-x="362" 
d="M106 280l-76 -23v143l76 23v307h150v-263l76 23v-143l-76 -23v-324h-150v280z" />
    <glyph glyph-name="OE" unicode="&#x152;" horiz-adv-x="1075" 
d="M514 139v422.003h-89c-31.333 0 -60 -5 -86 -15s-48.333 -24.333 -67 -43s-33 -40.834 -43 -66.501s-15 -53.834 -15 -84.501v-2c0 -31.333 5 -59.833 15 -85.5s24.333 -47.834 43 -66.501s41 -33.167 67 -43.5s54.667 -15.5 86 -15.5h89zM425 0.00292969
c-55.333 0 -105.666 8.83496 -150.999 26.502s-84.5 42.167 -117.5 73.5s-58.5 68.166 -76.5 110.499s-27 88.166 -27 137.499v2c0 49.333 9 95.333 27 138s43.5 79.667 76.5 111s72.167 56 117.5 74s95.666 27 150.999 27h592v-137h-350v-142h305v-137h-305v-147h355v-137
h-597z" />
    <glyph glyph-name="oe" unicode="&#x153;" horiz-adv-x="1033" 
d="M328 119c20.667 0 39.3311 3.83301 55.998 11.5s30.834 18.167 42.501 31.5s20.5 28.833 26.5 46.5s9 36.5 9 56.5v2c0 20 -3.33301 38.833 -10 56.5s-16 33.334 -28 47.001s-26.333 24.5 -43 32.5s-35 12 -55 12c-21.333 0 -40.166 -4 -56.499 -12
s-30.333 -18.667 -42 -32s-20.5 -28.833 -26.5 -46.5s-9 -36.167 -9 -55.5v-2c0 -20 3.33301 -38.833 10 -56.5s16 -33.334 28 -47.001s26.333 -24.5 43 -32.5s35 -12 55 -12zM839.997 310c-4.66699 34 -16.667 61.501 -36 82.501s-45 31.5 -77 31.5
s-57.833 -10.333 -77.5 -31s-32.5 -48.334 -38.5 -83.001h229zM321.997 -11.999c-38 0 -74.0029 7.16602 -108.003 21.499s-63.833 34 -89.5 59s-45.834 54.333 -60.501 88s-22 69.834 -22 108.501v2c0 38.667 7.5 74.834 22.5 108.501s35.333 63.167 61 88.5
s55.834 45.333 90.501 60s72 22 112 22c42 0 80.167 -7.83301 114.5 -23.5s63.5 -37.5 87.5 -65.5c23.333 28 51.833 49.833 85.5 65.5s70.834 23.5 111.501 23.5c44.667 0 83.334 -8 116.001 -24s59.834 -37.5 81.501 -64.5s37.667 -58 48 -93s15.5 -71.5 15.5 -109.5
c0 -6 -0.166992 -12.333 -0.5 -19s-0.833008 -13.667 -1.5 -21h-373c7.33301 -34.667 22.5 -60.834 45.5 -78.501s51.5 -26.5 85.5 -26.5c25.333 0 48 4.33301 68 13s40.667 22.667 62 42l87 -77c-25.333 -31.333 -56 -55.833 -92 -73.5s-78.333 -26.5 -127 -26.5
c-44 0 -84.333 8 -121 24s-67.667 38.333 -93 67c-24.667 -28 -54.667 -50.167 -90 -66.5s-74 -24.5 -116 -24.5z" />
    <glyph glyph-name="Scaron" unicode="&#x160;" horiz-adv-x="640" 
d="M122 912h117l79 -66l79 66h115l-123 -157h-144zM333 -10c-53.333 0 -105.667 9.16113 -157 27.4941s-98 46.5 -140 84.5l91 109c32 -26 64.833 -46.667 98.5 -62s70.5 -23 110.5 -23c32 0 56.833 5.83301 74.5 17.5s26.5 27.834 26.5 48.501v2
c0 10 -1.83301 18.833 -5.5 26.5s-10.667 14.834 -21 21.501s-24.666 13.334 -42.999 20.001s-42.166 13.667 -71.499 21c-35.333 8.66699 -67.333 18.334 -96 29.001s-53 23.834 -73 39.501s-35.5 35.167 -46.5 58.5s-16.5 52.333 -16.5 87v2c0 32 6 60.833 18 86.5
s28.833 47.834 50.5 66.501s47.5 33 77.5 43s63 15 99 15c51.333 0 98.5 -7.66699 141.5 -23s82.5 -37.333 118.5 -66l-80 -116c-31.333 21.333 -62 38.166 -92 50.499s-60 18.5 -90 18.5s-52.5 -5.83301 -67.5 -17.5s-22.5 -26.167 -22.5 -43.5v-2
c0 -11.333 2.16699 -21.166 6.5 -29.499s12.166 -15.833 23.499 -22.5s26.833 -13 46.5 -19s44.5 -13 74.5 -21c35.333 -9.33301 66.833 -19.833 94.5 -31.5s51 -25.667 70 -42s33.333 -35.5 43 -57.5s14.5 -48.333 14.5 -79v-2c0 -34.667 -6.33301 -65.5 -19 -92.5
s-30.334 -49.667 -53.001 -68s-49.667 -32.333 -81 -42s-66 -14.5 -104 -14.5z" />
    <glyph glyph-name="scaron" unicode="&#x161;" horiz-adv-x="502" 
d="M60 752h117l79 -66l79 66h115l-123 -157h-144zM256 -10c-38 0 -76.835 6.50098 -116.502 19.501s-77.5 33.5 -113.5 61.5l65 100c29.333 -21.333 58.5 -37.333 87.5 -48s56.167 -16 81.5 -16c22 0 38.167 3.66699 48.5 11s15.5 17 15.5 29v2c0 8 -3 15 -9 21
s-14.167 11.167 -24.5 15.5s-22.166 8.5 -35.499 12.5l-42 13c-18.667 5.33301 -37.5 11.833 -56.5 19.5s-36.167 17.667 -51.5 30s-27.833 27.5 -37.5 45.5s-14.5 40 -14.5 66v2c0 27.333 5.16699 51.5 15.5 72.5s24.333 38.833 42 53.5s38.334 25.667 62.001 33
s49.167 11 76.5 11c34 0 68.5 -5.5 103.5 -16.5s67.167 -26.167 96.5 -45.5l-58 -105c-26.667 15.333 -52.667 27.5 -78 36.5s-47.666 13.5 -66.999 13.5c-18.667 0 -32.667 -3.5 -42 -10.5s-14 -15.833 -14 -26.5v-2c0 -7.33301 3 -13.833 9 -19.5s14 -11 24 -16
s21.5 -9.83301 34.5 -14.5s26.833 -9.33398 41.5 -14.001c18.667 -6 37.667 -13.167 57 -21.5s36.666 -18.5 51.999 -30.5s28 -26.667 38 -44s15 -38.333 15 -63v-2c0 -30 -5.16699 -55.833 -15.5 -77.5s-24.833 -39.5 -43.5 -53.5s-40.5 -24.5 -65.5 -31.5
s-51.833 -10.5 -80.5 -10.5z" />
    <glyph glyph-name="Ydieresis" unicode="&#x178;" horiz-adv-x="716" 
d="M178 890h146v-135h-146v135zM392 890h146v-135h-146v135zM281 276l-269 424h180l167 -281l170 281h175l-269 -421v-279h-154v276z" />
    <glyph glyph-name="Zcaron" unicode="&#x17d;" horiz-adv-x="708" 
d="M162 912h117l79 -66l79 66h115l-123 -157h-144zM63 117l385 448h-373v135h571v-117l-385 -448h385v-135h-583v117z" />
    <glyph glyph-name="zcaron" unicode="&#x17e;" horiz-adv-x="563" 
d="M94 752h117l79 -66l79 66h115l-123 -157h-144zM50 107l277 306h-268v123h457v-107l-278 -306h278v-123h-466v107z" />
    <glyph glyph-name="florin" unicode="&#x192;" horiz-adv-x="536" 
d="M100 -5c-12.667 0 -23.332 0.332031 -31.999 0.999023s-17.667 2 -27 4v123c12.667 -2 25 -3 37 -3c21.333 0 37.333 4.66699 48 14s18 25 22 47l28 163h-67v125h89l14 74c9.33301 50.667 28.166 90.334 56.499 119.001s72.5 43 132.5 43c40.667 0 73.667 -4 99 -12v-126
c-12 3.33301 -23.667 5.83301 -35 7.5s-22.333 2.5 -33 2.5c-22 0 -39 -5.5 -51 -16.5s-20 -28.167 -24 -51.5l-7 -40h115v-125h-137l-33 -187c-5.33301 -29.333 -13 -54.333 -23 -75s-23 -37.5 -39 -50.5s-35 -22.333 -57 -28s-47.333 -8.5 -76 -8.5z" />
    <glyph glyph-name="circumflex" unicode="&#x2c6;" 
d="M178 752h144l123 -157h-117l-79 66l-79 -66h-115z" />
    <glyph glyph-name="caron" unicode="&#x2c7;" 
d="M55 752h117l79 -66l79 66h115l-123 -157h-144z" />
    <glyph glyph-name="breve" unicode="&#x2d8;" 
d="M250 593c-53.333 0 -96.8311 13.833 -130.498 41.5s-52.834 66.834 -57.501 117.501h102c6 -18 15.5 -32.5 28.5 -43.5s32.167 -16.5 57.5 -16.5s44.5 5.5 57.5 16.5s22.5 25.5 28.5 43.5h102c-4.66699 -50.667 -23.834 -89.834 -57.501 -117.501
s-77.167 -41.5 -130.5 -41.5z" />
    <glyph glyph-name="dotaccent" unicode="&#x2d9;" 
d="M175 730h150v-135h-150v135z" />
    <glyph glyph-name="ring" unicode="&#x2da;" 
d="M250 648c17.333 0 32 6 44 18s18 26.333 18 43v2c0 16.667 -6 31 -18 43s-26.667 18 -44 18s-32 -6 -44 -18s-18 -26.333 -18 -43v-2c0 -16.667 6 -31 18 -43s26.667 -18 44 -18zM250 593c-16 0 -31.333 3.16699 -46 9.5s-27.5 14.666 -38.5 24.999
s-19.833 22.5 -26.5 36.5s-10 29 -10 45v2c0 16 3.33301 31 10 45s15.5 26.167 26.5 36.5s23.833 18.666 38.5 24.999s30 9.5 46 9.5s31.333 -3.16699 46 -9.5s27.5 -14.666 38.5 -24.999s19.833 -22.5 26.5 -36.5s10 -29 10 -45v-2c0 -16 -3.33301 -31 -10 -45
s-15.5 -26.167 -26.5 -36.5s-23.833 -18.666 -38.5 -24.999s-30 -9.5 -46 -9.5z" />
    <glyph glyph-name="ogonek" unicode="&#x2db;" 
d="M371 -164c-64 -5.33301 -113.333 1.50195 -148 20.502s-52 48.5 -52 88.5c0 11.333 1.5 22.666 4.5 33.999s6.83301 21.666 11.5 30.999h104c-4 -14 -6 -27 -6 -39c0 -20.667 6.33301 -36.667 19 -48s35 -18 67 -20v-67z" />
    <glyph glyph-name="tilde" unicode="&#x2dc;" 
d="M44 610c6 20.667 12.499 39.5 19.499 56.5s15.333 31.5 25 43.5s21 21.333 34 28s28.167 10 45.5 10c15.333 0 30.166 -2 44.499 -6s27.833 -8.5 40.5 -13.5l35 -13.5c10.667 -4 20.667 -6 30 -6c15.333 0 26.833 4.16699 34.5 12.5s15.167 20.5 22.5 36.5l81 -25
c-11.333 -42 -26.166 -75.5 -44.499 -100.5s-44.833 -37.5 -79.5 -37.5c-15.333 0 -30.166 2 -44.499 6s-27.833 8.5 -40.5 13.5l-35.5 13.5c-11 4 -20.833 6 -29.5 6c-15.333 0 -26.833 -4.16699 -34.5 -12.5s-15.167 -20.5 -22.5 -36.5z" />
    <glyph glyph-name="hungarumlaut" unicode="&#x2dd;" 
d="M147 772l128 -57l-128 -120h-111zM344 772l128 -57l-130 -120h-111z" />
    <glyph glyph-name="Omega" unicode="&#x3a9;" horiz-adv-x="764" 
d="M94 406l-63 0.000976562v125h63v34c0 58 14.333 101.333 43 130c28 28 69 42 123 42c24 0 44.5 -1.33301 61.5 -4s32.5 -6.33398 46.5 -11.001v-126c-11.333 4 -22.333 7.16699 -33 9.5s-22.667 3.5 -36 3.5c-36.667 0 -55 -19.333 -55 -58v-21h123v-124h-121v-406h-152
v406zM476 406.001l-63 0.000976562v125h63v34c0 58 14.333 101.333 43 130c28 28 69 42 123 42c24 0 44.5 -1.33301 61.5 -4s32.5 -6.33398 46.5 -11.001v-126c-11.333 4 -22.333 7.16699 -33 9.5s-22.667 3.5 -36 3.5c-36.667 0 -55 -19.333 -55 -58v-21h123v-124h-121
v-406h-152v406z" />
    <glyph glyph-name="Omega" unicode="&#x2126;" horiz-adv-x="764" 
d="M94 406l-63 0.000976562v125h63v34c0 58 14.333 101.333 43 130c28 28 69 42 123 42c24 0 44.5 -1.33301 61.5 -4s32.5 -6.33398 46.5 -11.001v-126c-11.333 4 -22.333 7.16699 -33 9.5s-22.667 3.5 -36 3.5c-36.667 0 -55 -19.333 -55 -58v-21h123v-124h-121v-406h-152
v406zM476 406.001l-63 0.000976562v125h63v34c0 58 14.333 101.333 43 130c28 28 69 42 123 42c24 0 44.5 -1.33301 61.5 -4s32.5 -6.33398 46.5 -11.001v-126c-11.333 4 -22.333 7.16699 -33 9.5s-22.667 3.5 -36 3.5c-36.667 0 -55 -19.333 -55 -58v-21h123v-124h-121
v-406h-152v406z" />
    <glyph glyph-name="pi" unicode="&#x3c0;" horiz-adv-x="830" 
d="M434 355c21.333 0 37.832 5.5 49.499 16.5s17.5 24.833 17.5 41.5v2c0 18.667 -6.16699 33 -18.5 43s-29.166 15 -50.499 15h-64v-118h66zM281.999 549h158c46 0 82.167 -12.167 108.5 -36.5s39.5 -56.5 39.5 -96.5v-2c0 -22 -4.16699 -41.333 -12.5 -58
s-19.5 -30.667 -33.5 -42s-30.5 -19.833 -49.5 -25.5s-39.167 -8.5 -60.5 -8.5h-64v-116h-86v385zM413.999 28c46 0 88.499 8.5 127.499 25.5s72.833 40 101.5 69s51.167 63.167 67.5 102.5s24.5 81 24.5 125v2c0 44 -8.16699 85.5 -24.5 124.5s-38.666 73 -66.999 102
s-62 51.833 -101 68.5s-81.167 25 -126.5 25c-46 0 -88.5 -8.5 -127.5 -25.5s-72.833 -40 -101.5 -69s-51.167 -63.167 -67.5 -102.5s-24.5 -81 -24.5 -125v-2c0 -44 8 -85.5 24 -124.5s38.333 -73 67 -102s62.5 -51.833 101.5 -68.5s81.167 -25 126.5 -25zM413.998 -12
c-50.667 0 -98 9.5 -142 28.5s-82.167 44.833 -114.5 77.5s-57.833 70.834 -76.5 114.501s-28 90.167 -28 139.5v2c0 49.333 9.33301 95.833 28 139.5s44.334 82 77.001 115s71.167 59.167 115.5 78.5s91.833 29 142.5 29s98 -9.5 142 -28.5s82.167 -44.833 114.5 -77.5
s57.833 -70.834 76.5 -114.501s28 -90.167 28 -139.5v-2c0 -49.333 -9.33301 -95.833 -28 -139.5s-44.334 -82 -77.001 -115s-71.167 -59.167 -115.5 -78.5s-91.833 -29 -142.5 -29z" />
    <glyph glyph-name="endash" unicode="&#x2013;" horiz-adv-x="528" 
d="M50 381h428v-142h-428v142z" />
    <glyph glyph-name="emdash" unicode="&#x2014;" horiz-adv-x="898" 
d="M50 381h798v-142h-798v142z" />
    <glyph glyph-name="quoteleft" unicode="&#x2018;" horiz-adv-x="286" 
d="M57 518c0 66 16.001 113.333 48.001 142s77.667 43.667 137 45l13 -63c-70.667 -7.33301 -103.334 -40.333 -98.001 -99h62v-160h-162v135z" />
    <glyph glyph-name="quoteright" unicode="&#x2019;" horiz-adv-x="286" 
d="M31 441c70.667 7.33301 103.333 40.333 98 99h-62v160h162v-135c0 -66 -16 -113.5 -48 -142.5s-77.667 -43.833 -137 -44.5z" />
    <glyph glyph-name="quotesinglbase" unicode="&#x201a;" horiz-adv-x="286" 
d="M26 -99c70.667 7.33301 103.333 40.333 98 99h-62v160h162v-135c0 -66 -16 -113.5 -48 -142.5s-77.667 -43.833 -137 -44.5z" />
    <glyph glyph-name="quotedblleft" unicode="&#x201c;" horiz-adv-x="540" 
d="M57 518c0 66 16.001 113.333 48.001 142s77.667 43.667 137 45l13 -63c-70.667 -7.33301 -103.334 -40.333 -98.001 -99h62v-160h-162v135zM311.001 518c0 66 16.001 113.333 48.001 142s77.667 43.667 137 45l13 -63c-70.667 -7.33301 -103.334 -40.333 -98.001 -99h62
v-160h-162v135z" />
    <glyph glyph-name="quotedblright" unicode="&#x201d;" horiz-adv-x="540" 
d="M31 441c70.667 7.33301 103.333 40.333 98 99h-62v160h162v-135c0 -66 -16 -113.5 -48 -142.5s-77.667 -43.833 -137 -44.5zM284.999 441c70.667 7.33301 103.333 40.333 98 99h-62v160h162v-135c0 -66 -16 -113.5 -48 -142.5s-77.667 -43.833 -137 -44.5z" />
    <glyph glyph-name="quotedblbase" unicode="&#x201e;" horiz-adv-x="540" 
d="M26 -99c70.667 7.33301 103.333 40.333 98 99h-62v160h162v-135c0 -66 -16 -113.5 -48 -142.5s-77.667 -43.833 -137 -44.5zM279.999 -99c70.667 7.33301 103.333 40.333 98 99h-62v160h162v-135c0 -66 -16 -113.5 -48 -142.5s-77.667 -43.833 -137 -44.5z" />
    <glyph glyph-name="dagger" unicode="&#x2020;" horiz-adv-x="410" 
d="M173 508l-120 -10v83l119 -10l-13 129h92l-13 -129l119 10v-83l-120 10l10 -270h-84z" />
    <glyph glyph-name="daggerdbl" unicode="&#x2021;" horiz-adv-x="430" 
d="M182 129l-119 -10v83l119 -10l-9 158l9 158l-119 -10v83l119 -10l-13 129h92l-13 -129l119 10v-83l-119 10l9 -158l-9 -158l119 10v-83l-119 10l13 -129h-92z" />
    <glyph glyph-name="bullet" unicode="&#x2022;" 
d="M250 203c-20.667 0 -40 3.83301 -58 11.5s-33.833 18.167 -47.5 31.5s-24.334 29 -32.001 47s-11.5 37.333 -11.5 58v2c0 20.667 3.83301 40 11.5 58s18.334 33.667 32.001 47s29.5 23.833 47.5 31.5s37.333 11.5 58 11.5s40 -3.83301 58 -11.5s33.667 -18.167 47 -31.5
s24 -29 32 -47s12 -37.333 12 -58v-2c0 -20.667 -4 -40 -12 -58s-18.667 -33.667 -32 -47s-29 -23.833 -47 -31.5s-37.333 -11.5 -58 -11.5z" />
    <glyph glyph-name="ellipsis" unicode="&#x2026;" horiz-adv-x="840" 
d="M62 156h158v-156h-158v156zM341 156h158v-156h-158v156zM620 156h158v-156h-158v156z" />
    <glyph glyph-name="perthousand" unicode="&#x2030;" horiz-adv-x="1240" 
d="M646 83c21.333 0 37.333 8.66699 48 26s16 37.333 16 60v2c0 23.333 -6 43.833 -18 61.5s-28 26.5 -48 26.5c-21.333 0 -37.333 -8.5 -48 -25.5s-16 -37.167 -16 -60.5v-2c0 -23.333 6 -43.833 18 -61.5s28 -26.5 48 -26.5zM1026 83c21.333 0 37.333 8.66699 48 26
s16 37.333 16 60v2c0 23.333 -6 43.833 -18 61.5s-28 26.5 -48 26.5c-21.333 0 -37.333 -8.5 -48 -25.5s-16 -37.167 -16 -60.5v-2c0 -23.333 6 -43.833 18 -61.5s28 -26.5 48 -26.5zM216 441c21.333 0 37.333 8.66699 48 26s16 37.333 16 60v2c0 23.333 -6 43.833 -18 61.5
s-28 26.5 -48 26.5c-21.333 0 -37.333 -8.5 -48 -25.5s-16 -37.167 -16 -60.5v-2c0 -23.333 6 -43.833 18 -61.5s28 -26.5 48 -26.5zM644 -8c-25.333 0 -48.333 4.66699 -69 14s-38.5 22 -53.5 38s-26.5 34.667 -34.5 56s-12 44.333 -12 69v2
c0 24.667 4.16699 47.834 12.5 69.501s20 40.667 35 57s33 29.166 54 38.499s44.167 14 69.5 14s48.333 -4.66699 69 -14s38.5 -22 53.5 -38s26.5 -34.667 34.5 -56s12 -44.333 12 -69v-2c0 -24.667 -4.16699 -47.834 -12.5 -69.501s-20 -40.667 -35 -57
s-33 -29.166 -54 -38.499s-44.167 -14 -69.5 -14zM1024 -8c-25.333 0 -48.333 4.66699 -69 14s-38.5 22 -53.5 38s-26.5 34.667 -34.5 56s-12 44.333 -12 69v2c0 24.667 4.16699 47.834 12.5 69.501s20 40.667 35 57s33 29.166 54 38.499s44.167 14 69.5 14
s48.333 -4.66699 69 -14s38.5 -22 53.5 -38s26.5 -34.667 34.5 -56s12 -44.333 12 -69v-2c0 -24.667 -4.16699 -47.834 -12.5 -69.501s-20 -40.667 -35 -57s-33 -29.166 -54 -38.499s-44.167 -14 -69.5 -14zM626 700h119l-511 -700h-119zM214 350
c-25.333 0 -48.333 4.66699 -69 14s-38.5 22 -53.5 38s-26.5 34.667 -34.5 56s-12 44.333 -12 69v2c0 24.667 4.16699 47.834 12.5 69.501s20 40.667 35 57s33 29.166 54 38.499s44.167 14 69.5 14s48.333 -4.66699 69 -14s38.5 -22 53.5 -38s26.5 -34.667 34.5 -56
s12 -44.333 12 -69v-2c0 -24.667 -4.16699 -47.834 -12.5 -69.501s-20 -40.667 -35 -57s-33 -29.166 -54 -38.499s-44.167 -14 -69.5 -14z" />
    <glyph glyph-name="guilsinglleft" unicode="&#x2039;" horiz-adv-x="373" 
d="M41 264v8l168 224l116 -56l-130 -171l130 -171l-116 -58z" />
    <glyph glyph-name="guilsinglright" unicode="&#x203a;" horiz-adv-x="373" 
d="M48 96l130 171l-130 171l116 58l168 -224v-8l-168 -224z" />
    <glyph glyph-name="fraction" unicode="&#x2044;" horiz-adv-x="480" 
d="M395 758h134l-466 -856h-134z" />
    <glyph glyph-name="fraction" unicode="&#x2215;" horiz-adv-x="480" 
d="M395 758h134l-466 -856h-134z" />
    <glyph glyph-name="trademark" unicode="&#x2122;" horiz-adv-x="690" 
d="M118 638h-92v62h254v-62h-92v-246h-70v246zM345 700h74l81 -130l81 130h72v-308h-66v208l-85 -135h-6l-85 135v-208h-66v308z" />
    <glyph glyph-name="radical" unicode="&#x221a;" horiz-adv-x="1066" 
d="M839 730h152v-730h-152v730zM94 406l-63 0.000976562v125h63v34c0 58 14.333 101.333 43 130c28 28 69 42 123 42c24 0 44.5 -1.33301 61.5 -4s32.5 -6.33398 46.5 -11.001v-126c-11.333 4 -22.333 7.16699 -33 9.5s-22.667 3.5 -36 3.5c-36.667 0 -55 -19.333 -55 -58
v-21h123v-124h-121v-406h-152v406zM476 406.001l-63 0.000976562v125h63v34c0 58 14.333 101.333 43 130c28 28 69 42 123 42c24 0 44.5 -1.33301 61.5 -4s32.5 -6.33398 46.5 -11.001v-126c-11.333 4 -22.333 7.16699 -33 9.5s-22.667 3.5 -36 3.5
c-36.667 0 -55 -19.333 -55 -58v-21h123v-124h-121v-406h-152v406z" />
    <glyph glyph-name="approxequal" unicode="&#x2248;" horiz-adv-x="1066" 
d="M839 536h152v-536h-152v536zM94 406l-63 0.000976562v125h63v34c0 58 14.333 101.333 43 130c28 28 69 42 123 42c24 0 44.5 -1.33301 61.5 -4s32.5 -6.33398 46.5 -11.001v-126c-11.333 4 -22.333 7.16699 -33 9.5s-22.667 3.5 -36 3.5c-36.667 0 -55 -19.333 -55 -58
v-21h123v-124h-121v-406h-152v406zM476 406.001l-63 0.000976562v125h63v34c0 58 14.333 101.333 43 130c28 28 69 42 123 42c24 0 44.5 -1.33301 61.5 -4s32.5 -6.33398 46.5 -11.001v-126c-11.333 4 -22.333 7.16699 -33 9.5s-22.667 3.5 -36 3.5
c-36.667 0 -55 -19.333 -55 -58v-21h123v-124h-121v-406h-152v406zM835 730.002h160v-135h-160v135z" />
    <glyph glyph-name="NUL" horiz-adv-x="0" 
 />
    <glyph glyph-name="nonmarkingreturn" horiz-adv-x="300" 
 />
    <glyph glyph-name="apple" horiz-adv-x="967" 
d="M417 64c0 -4.66699 -0.832031 -8.66699 -2.49902 -12s-4.83398 -5 -9.50098 -5c-4 0 -7 1.66699 -9 5s-3 7.33301 -3 12c0 10.667 4 16 12 16s12 -5.33301 12 -16zM352.001 64h-3c-5.33301 0 -8 2.66699 -8 8c0 4 2.33301 6 7 6c2.66699 0 4 -1.33301 4 -4v-10z
M553.001 79c2.66699 0 2.66699 -3 0 -9c-3.33301 6 -3.33301 9 0 9zM393.001 182c0 -4.66699 -1.33203 -7.00098 -3.99902 -7.00098h-5c-7.33301 0 -13.5 3.33301 -18.5 10s-7.5 14 -7.5 22c0 11.333 4.66699 17 14 17h6c2 -0.666992 3.16699 -1.16699 3.5 -1.5
s1.16602 -2.16602 2.49902 -5.49902zM716.002 186.999c0 -8.66699 -3.66699 -12.999 -11 -12.999c-6 0 -11.667 3.83301 -17 11.5s-8 16.5 -8 26.5c0 9.33301 3.66699 14 11 14c6 0 11.667 -3.83301 17 -11.5s8 -16.834 8 -27.501zM275.002 200
c-5.33301 0 -9.16699 1.66797 -11.5 5.00098s-3.5 6.66602 -3.5 9.99902c0 6 2.66699 9 8 9s8.33301 -1.66699 9 -5l3 -19h-5zM381.001 384.001c-8.66699 0 -13 3.66699 -13 11s4.33301 11 13 11h11v-22h-11zM684.001 535.001c0 -8.66699 -3.66699 -12.999 -11 -12.999
c-6 0 -11.667 3.83301 -17 11.5s-8 16.5 -8 26.5c0 9.33301 3.66699 14 11 14c6 0 11.667 -3.83301 17 -11.5s8 -16.834 8 -27.501zM272.001 553.002c-2 -2.66699 -4.33203 -4 -6.99902 -4s-4 0.666992 -4 2c0 2 1.33301 3 4 3c3.33301 0 5.66602 -0.333008 6.99902 -1z
M566.002 553.002c-2 -2.66699 -4.33203 -4 -6.99902 -4s-4 0.666992 -4 2c0 2 1.33301 3 4 3c3.33301 0 5.66602 -0.333008 6.99902 -1zM171.003 548.002c-5.33301 0 -9.16699 1.66797 -11.5 5.00098s-3.5 6.66602 -3.5 9.99902c0 6 2.66699 9 8 9s8.33301 -1.66699 9 -5
l3 -19h-5zM441.002 -87.9971c0 8.66699 -3.66699 13 -11 13s-11 -4 -11 -12c0 -8.66699 3.66699 -13 11 -13s11 4 11 12zM800.002 -87.9971c0 8.66699 -3.66699 13 -11 13s-11 -4 -11 -12c0 -8.66699 3.66699 -13 11 -13s11 4 11 12zM559.002 -79.9971l-5 -12h10z
M394.002 -82.9971c0 5.33301 -3.66699 7.66699 -11 7v-13c7.33301 0 11 2 11 6zM525.002 -81.9961c0 5.33301 -3.66699 7.33301 -11 6v-12c7.33301 -0.666992 11 1.33301 11 6zM606.002 -82.9961c0 5.33301 -3.66699 7.66699 -11 7v-13c7.33301 0 11 2 11 6z
M309.002 48.0049c-1.33301 0 -2.3291 0.333984 -2.99609 1.00098c-2 0.666992 -3 2.33398 -3 5.00098v20c0 1.33301 1 2.66602 3 3.99902c0.666992 0.666992 1.66699 1 3 1v2h-18v-2c0.666992 0 1.66699 -0.333008 3 -1c2 -2 3 -3.33301 3 -4v-9
c-1.33301 0 -2.66602 0.666992 -3.99902 2l-8 8c-2 0.666992 -2.33301 1.66699 -1 3c0.666992 0.666992 1.33398 1 2.00098 1v2h-14v-2c0.666992 0 1.66699 -0.333008 3 -1s2.16602 -1.16699 2.49902 -1.5s1.16602 -0.833008 2.49902 -1.5l10 -9l-13 -13
c-0.666992 -0.666992 -1.33398 -1.16699 -2.00098 -1.5s-1.33398 -0.833008 -2.00098 -1.5c-1.33301 -0.666992 -2.33301 -1.33398 -3 -2.00098v-2h17v2c-1.33301 0 -2.33301 0.333008 -3 1s-0.333984 2 0.999023 4l8 8c1.33301 1.33301 2.66602 2 3.99902 2v-9
c0 -1.33301 -1 -3 -3 -5c-1.33301 -0.666992 -2.33301 -1 -3 -1v-2h18v2zM364.006 48.0059c-1.33301 0 -2.33105 0.332031 -2.99805 0.999023c-1.33301 1.33301 -2 2.66602 -2 3.99902v20c0 2 0.666992 3.66699 2 5c0.666992 0.666992 1.66699 1 3 1v2h-18
c-8.66699 0 -13 -3 -13 -9c0 -3.33301 3 -6.33301 9 -9l-7 -10c-1.33301 -1.33301 -2.5 -2.16602 -3.5 -2.49902s-1.83301 -0.833008 -2.5 -1.5l-2 -1v-2h11l7 12c2 2.66699 4.33301 4 7 4v-9c0 -1.33301 -0.333008 -2.16602 -1 -2.49902s-1.33398 -0.833008 -2.00098 -1.5
s-1.33398 -1 -2.00098 -1v-2h17v2zM425.008 64.0049c0 5.33301 -1.66699 9.66602 -5 12.999s-8.33301 5 -15 5s-11.667 -1.66699 -15 -5s-5 -7.66602 -5 -12.999s1.66699 -9.83301 5 -13.5s8.33301 -5.5 15 -5.5s11.667 1.83301 15 5.5s5 8.16699 5 13.5zM480.008 81.0049
l-15.002 0.00195312v-2c0.666992 0 1.33398 -0.333008 2.00098 -1s0.333984 -2 -0.999023 -4l-6 -9l-6 9c-1.33301 1.33301 -1.33301 2.66602 0 3.99902c0.666992 0.666992 1.66699 1 3 1v2h-15v-2c0.666992 0 1.66699 -0.333008 3 -1s3 -2 5 -4l8 -12v-8
c0 -1.33301 -1 -3 -3 -5c-0.666992 -0.666992 -1.33398 -1 -2.00098 -1v-2h17v2c-1.33301 0 -2.33301 0.333008 -3 1c-1.33301 1.33301 -2 3 -2 5v8l8 12c0.666992 1.33301 1.5 2.16602 2.5 2.49902s1.83301 0.833008 2.5 1.5s1.33398 1 2.00098 1v2zM568.006 81.0068
l-0.00683594 -2c0.666992 0 1.33398 -0.333008 2.00098 -1s0.666992 -2 0 -4l-9 -19l-5 10l4 8c0.666992 1.33301 1.33398 2.16602 2.00098 2.49902s1.33398 0.833008 2.00098 1.5l2 2v2h-26l1 -2c0.666992 0 1.33398 -0.333008 2.00098 -1l2 -2l3 -3l3 -5l-7 -13l-8 18
c-1.33301 2 -1.33301 3.66699 0 5c0.666992 0.666992 1.33398 1 2.00098 1v2h-13v-2c0.666992 0 1.33398 -0.333008 2.00098 -1c2 -2 3.33301 -3.66699 4 -5l13 -27h1c0.666992 -0.666992 1 -0.666992 1 0l8 16l9 -16h1l12 27c0.666992 1.33301 1.5 2.33301 2.5 3
s1.83301 1.33398 2.5 2.00098s1.33398 1 2.00098 1v2h-15zM632.999 48.0068c-1.33301 -0.666992 -2.33105 -0.666016 -2.99805 0.000976562c-1.33301 0 -2 1.66699 -2 5v21c0 2 0.666992 3.66699 2 5h3v2h-29l-2 -10l2 -1c0 1.33301 0.666992 2.66602 2 3.99902
c1.33301 2.66699 3.66602 4 6.99902 4h4c2.66699 0 4 -1 4 -3v-10h-4c-2 0 -3.66699 0.666992 -5 2c-0.666992 0.666992 -1 1.66699 -1 3h-2v-13h2c0 0.666992 0.333008 1.66699 1 3c2 2 3.66699 3 5 3h4v-11c0 -2 -1.33301 -3 -4 -3h-4
c-2.66699 0 -5.33398 1.33301 -8.00098 4c-1.33301 1.33301 -2 3 -2 5l-2 -1l2 -11h30v2zM694.001 48.0078c-1.33301 0 -2.33203 0.333008 -2.99902 1c-2 0.666992 -3 2 -3 4v20c0 1.33301 1 2.66602 3 3.99902c0.666992 0.666992 1.66699 1.33398 3 2.00098v2h-10l-24 -26
v18c0 2 1 3.66699 3 5c0.666992 0.666992 1.66699 1 3 1v2h-15v-2c0.666992 0 1.66699 -0.333008 3 -1c2 -2 3 -3.66699 3 -5v-28h3l25 28v-20c0 -0.666992 -1 -2 -3 -4c-0.666992 -0.666992 -1.33398 -1 -2.00098 -1v-2h14v2zM827.002 133.008h-685v-6h685v6z
M306.002 174.008c-1.33301 0 -2.66797 0.333984 -4.00098 1.00098s-2.5 1.33398 -3.5 2.00098s-1.83301 2.33398 -2.5 5.00098l-7 35c-0.666992 3.33301 0.333008 5.66602 3 6.99902c1.33301 0.666992 2.66602 1 3.99902 1l-1 3h-27c-13.333 0 -20 -5 -20 -15
c0 -4 1.83301 -7.33301 5.5 -10s8.16699 -4.33398 13.5 -5.00098l-9 -16c-1.33301 -2.66699 -2.83301 -4.33398 -4.5 -5.00098s-3.16699 -1.33398 -4.5 -2.00098c-2 -0.666992 -3.66699 -1 -5 -1l1 -3h19l12 23c0.666992 2 2.33398 3 5.00098 3l3 -15
c0.666992 -3.33301 -0.333008 -5.66602 -3 -6.99902c-1.33301 -0.666992 -2.66602 -1 -3.99902 -1l1 -3h29zM413 175.009c-1.33301 -0.666992 -2.66699 -0.666992 -4 0c-3.33301 1.33301 -5.33301 4.33301 -6 9l-8 31c-2 6 0.666992 9.33301 8 10l-1 3h-30
c-6 0 -11.667 -1.83301 -17 -5.5s-8 -9.16699 -8 -16.5c0 -10.667 3.66699 -19.167 11 -25.5s15.333 -9.5 24 -9.5h32zM521.999 174.009c-0.666992 0 -1.66602 0.333008 -2.99902 1c-3.33301 1.33301 -5.33301 4.33301 -6 9l-7 32c-0.666992 4 0.333008 6.66699 3 8
c1.33301 0.666992 3 1 5 1l-1 3h-14l-29 -42l-5 30c-0.666992 4 0.333008 6.66699 3 8c1.33301 0.666992 2.66602 1 3.99902 1l-1 3h-21l1 -3c1.33301 0 2.66602 -0.333008 3.99902 -1c2 -1.33301 3.66699 -4 5 -8l8 -45l3 -1l30 44l6 -30
c0.666992 -4.66699 0 -7.66699 -2 -9c-1.33301 -0.666992 -2.66602 -1 -3.99902 -1l1 -3h21zM620 228.009h-28.998l1 -3c1.33301 0 2.66602 -0.333008 3.99902 -1c3.33301 -1.33301 5.33301 -4 6 -8l5 -21c1.33301 -6.66699 1.66602 -11.667 0.999023 -15
s-4.66699 -5 -12 -5c-5.33301 0 -9.66602 2.16699 -12.999 6.5s-5.66602 9.5 -6.99902 15.5l-4 19c-0.666992 4.66699 0.333008 7.66699 3 9c1.33301 0.666992 2.66602 0.666992 3.99902 0v3h-24l1 -3c1.33301 0 3 -0.333008 5 -1c3.33301 -1.33301 5.33301 -4 6 -8l4 -19
c1.33301 -5.33301 4 -11.166 8 -17.499s10.667 -9.5 20 -9.5c11.333 0 17.666 2.66699 18.999 8s1.33301 10.666 0 15.999l-5 22c-1.33301 2.66699 -1.5 4.66699 -0.5 6s2.16699 2.33301 3.5 3s3 0.666992 5 0zM822.002 174.009
c-1.33301 0 -2.66504 0.331055 -3.99805 0.998047s-2.5 1.33398 -3.5 2.00098s-1.83301 2.33398 -2.5 5.00098l-7 35c-0.666992 3.33301 0.333008 5.66602 3 6.99902c1.33301 0.666992 2.66602 1 3.99902 1l-1 3h-45v-10v-7h4c-0.666992 2 -0.333984 4 0.999023 6
c1.33301 4.66699 5.33301 7 12 7h4c3.33301 0 5.33301 -2 6 -6l3 -16h-4c-3.33301 0 -6.33301 1.33301 -9 4c-1.33301 1.33301 -2.33301 3 -3 5h-3l5 -23h3c0 1.33301 0.333008 3 1 5c1.33301 4 3.66602 6 6.99902 6h4l3 -17
c0.666992 -3.33301 -0.333008 -5.66602 -3 -6.99902c-1.33301 -0.666992 -2.66602 -1 -3.99902 -1l1 -3h29zM203.003 217.007c-2 3.33301 -4.17188 6.33398 -6.50488 9.00098s-6.16602 4 -11.499 4c-10 0 -14.667 -7.66699 -14 -23c-2 6.66699 -4.66699 12.167 -8 16.5
s-7.66602 6.5 -12.999 6.5c-3.33301 0 -6.16602 -1 -8.49902 -3s-3.5 -5 -3.5 -9l3 -1c0 4 2.66699 6 8 6c6.66699 0 11.834 -3.5 15.501 -10.5s6.5 -14.5 8.5 -22.5c1.33301 -4.66699 1.66602 -7.83398 0.999023 -9.50098s-1.66699 -3.16699 -3 -4.5
s-2.66602 -1.66602 -3.99902 -0.999023l1 -4h28l-1 4c-1.33301 -0.666992 -2.66602 -0.666992 -3.99902 0c-3.33301 1.33301 -5.33301 4.33301 -6 9c-3.33301 11.333 -5 19.666 -5 24.999c0 8.66699 3 13 9 13c3.33301 0 5.83301 -0.833008 7.5 -2.5l4.5 -4.5z
M727.998 192.008c0 10 -3.83301 18.833 -11.5 26.5s-16.167 11.5 -25.5 11.5c-4.66699 0 -9.66699 -1.66699 -15 -5s-8 -9 -8 -17c0 -10.667 3.83301 -19.667 11.5 -27s16.167 -11 25.5 -11c4.66699 0 9.66699 1.66699 15 5s8 9 8 17zM826.998 277.008h-685v-6h685v6z
M282.998 341.008h-14v65h14v34h-141v-62h41v28h33v-20h-24v-24h24v-21h-33v28h-41v-61h141v33zM457.998 341.008h-14v65h14v34h-96c-14.667 0 -26.167 -3.83301 -34.5 -11.5s-12.5 -17.167 -12.5 -28.5s4.16699 -20.833 12.5 -28.5s19.833 -11.5 34.5 -11.5h30v-19h-15v-33
h81v33zM647.998 440.008h-81v-34h11l-15 -23l-15 23h10v34h-62v-34h12l37 -46v-19h-14v-33h81v33h-15v20l37 45h14v34zM826.998 440.008h-147v-62h36v28h11v-65h-14v-33h81v33h-14v65h11v-28h36v62zM826.998 481.008h-685v-6h685v6zM399.998 521.008
c0 1.33301 -1.00098 3.00098 -3.00098 5.00098s-5.33301 3.33301 -10 4c-2.66699 2 -4.16699 5.5 -4.5 10.5s-1 10.333 -2 16s-3 10.667 -6 15s-8.5 6.5 -16.5 6.5c-3.33301 0 -6.33301 -1.16699 -9 -3.5s-4 -4.5 -4 -6.5c0 -3.33301 1.66699 -5 5 -5c2.66699 0 4 2 4 6
s1.66699 6 5 6s5.5 -1.66699 6.5 -5s1.83301 -7.33301 2.5 -12s1.83398 -9.5 3.50098 -14.5s4.5 -9.5 8.5 -13.5c-7.33301 0 -12.166 -2.16699 -14.499 -6.5s-5.16602 -6.5 -8.49902 -6.5s-5 1.33301 -5 4c0 1.33301 0.333008 2.16602 1 2.49902s1 1.16602 1 2.49902
c0 3.33301 -1.66699 5 -5 5s-5 -2.33301 -5 -7c0 -3.33301 1.66699 -6.16602 5 -8.49902s6.66602 -3.5 9.99902 -3.5c8.66699 0 13.667 2.16699 15 6.5s4.66602 6.5 9.99902 6.5c2 -4.66699 6 -7 12 -7c2.66699 0 4 1 4 3zM201.997 522.009
c-1.33301 0 -2.66797 0.333984 -4.00098 1.00098s-2.5 1.33398 -3.5 2.00098s-1.83301 2.33398 -2.5 5.00098l-7 35c-0.666992 3.33301 0.333008 5.66602 3 6.99902c1.33301 0.666992 2.66602 1 3.99902 1l-1 3h-27c-13.333 0 -20 -5 -20 -15c0 -4 1.83301 -7.33301 5.5 -10
s8.16699 -4.33398 13.5 -5.00098l-9 -16c-1.33301 -2.66699 -2.83301 -4.33398 -4.5 -5.00098s-3.16699 -1.33398 -4.5 -2.00098c-2 -0.666992 -3.66699 -1 -5 -1l1 -3h19l12 23c0.666992 2 2.33398 3 5.00098 3l3 -15c0.666992 -3.33301 -0.333008 -5.66602 -3 -6.99902
c-1.33301 -0.666992 -2.66602 -1 -3.99902 -1l1 -3h29zM496.995 522.01c-1.33301 0 -2.66504 0.331055 -3.99805 0.998047s-2.5 1.33398 -3.5 2.00098s-1.83301 2.33398 -2.5 5.00098l-7 35c-0.666992 3.33301 0.333008 5.66602 3 6.99902
c1.33301 0.666992 2.66602 1 3.99902 1l-1 3h-45v-10v-7h4c-0.666992 2 -0.333984 4 0.999023 6c1.33301 4.66699 5.33301 7 12 7h4c3.33301 0 5.33301 -2 6 -6l3 -16h-4c-3.33301 0 -6.33301 1.33301 -9 4c-1.33301 1.33301 -2.33301 3 -3 5h-3l5 -23h3
c0 1.33301 0.333008 3 1 5c1.33301 4 3.66602 6 6.99902 6h4l3 -17c0.666992 -3.33301 -0.333008 -5.66602 -3 -6.99902c-1.33301 -0.666992 -2.66602 -1 -3.99902 -1l1 -3h29zM819.996 522.008c-1.33301 0 -2.66699 0.327148 -4 0.994141s-2.5 1.33398 -3.5 2.00098
s-1.83301 2.33398 -2.5 5.00098l-7 35c-0.666992 3.33301 0.333008 5.66602 3 6.99902c1.33301 0.666992 2.66602 1 3.99902 1l-1 3h-28l1 -3c1.33301 0 2.66602 -0.333008 3.99902 -1c2.66699 -1.33301 4.33398 -3.66602 5.00098 -6.99902l3 -15h-24l-3 15
c-0.666992 3.33301 0.333008 5.66602 3 6.99902c1.33301 0.666992 2.66602 1 3.99902 1l-1 3h-29l1 -3c1.33301 0 2.66602 -0.333008 3.99902 -1c3.33301 -1.33301 5.33301 -3.66602 6 -6.99902l7 -35c0.666992 -3.33301 -0.333008 -5.66602 -3 -6.99902
c-1.33301 -0.666992 -2.66602 -1 -3.99902 -1l1 -3h29l-1 3c-1.33301 0 -2.66602 0.333008 -3.99902 1s-2.5 1.33398 -3.5 2.00098s-1.83301 2.33398 -2.5 5.00098l-3 16h24l3 -16c0.666992 -3.33301 -0.333008 -5.66602 -3 -6.99902
c-1.33301 -0.666992 -2.66602 -1 -3.99902 -1l1 -3h29zM294.995 537.002c0 8 -4.66895 13.6689 -14.002 17.002c3.33301 2 5 5 5 9c0 3.33301 -1.66699 6.66602 -5 9.99902s-8.66602 5 -15.999 5c-8.66699 0 -13 -3.66699 -13 -11c0 -4 1.66699 -6 5 -6c2.66699 0 4 1 4 3
s-0.5 3.16699 -1.5 3.5s-1.5 1.16602 -1.5 2.49902c0 3.33301 2.33301 5 7 5c6.66699 0 10 -4 10 -12c0 -2.66699 -0.666992 -4.66699 -2 -6c-10.667 1.33301 -16 -0.666992 -16 -6c0 -4 2.66699 -6 8 -6c4 0 7.66699 1.66699 11 5c4 -3.33301 6 -8.33301 6 -15
c0 -9.33301 -4 -14 -12 -14s-12 3 -12 9c0 2 1 3 3 3c0.666992 0 1.33398 -0.333008 2.00098 -1s1.66699 -1 3 -1c2.66699 0 4 1.66699 4 5s-2.33301 5 -7 5c-6 0 -9 -3.33301 -9 -10c0 -8.66699 5.33301 -13 16 -13c8.66699 0 15 1.83301 19 5.5s6 8.16699 6 13.5z
M588.993 537.004c0 8 -4.66895 13.6689 -14.002 17.002c3.33301 2 5 5 5 9c0 3.33301 -1.66699 6.66602 -5 9.99902s-8.66602 5 -15.999 5c-8.66699 0 -13 -3.66699 -13 -11c0 -4 1.66699 -6 5 -6c2.66699 0 4 1 4 3s-0.5 3.16699 -1.5 3.5s-1.5 1.16602 -1.5 2.49902
c0 3.33301 2.33301 5 7 5c6.66699 0 10 -4 10 -12c0 -2.66699 -0.666992 -4.66699 -2 -6c-10.667 1.33301 -16 -0.666992 -16 -6c0 -4 2.66699 -6 8 -6c4 0 7.66699 1.66699 11 5c4 -3.33301 6 -8.33301 6 -15c0 -9.33301 -4 -14 -12 -14s-12 3 -12 9c0 2 1 3 3 3
c0.666992 0 1.33398 -0.333008 2.00098 -1s1.66699 -1 3 -1c2.66699 0 4 1.66699 4 5s-2.33301 5 -7 5c-6 0 -9 -3.33301 -9 -10c0 -8.66699 5.33301 -13 16 -13c8.66699 0 15 1.83301 19 5.5s6 8.16699 6 13.5zM695.991 540.006c0 10 -3.83301 18.833 -11.5 26.5
s-16.167 11.5 -25.5 11.5c-4.66699 0 -9.66699 -1.66699 -15 -5s-8 -9 -8 -17c0 -10.667 3.83301 -19.667 11.5 -27s16.167 -11 25.5 -11c4.66699 0 9.66699 1.66699 15 5s8 9 8 17zM826.991 624.006h-685v-6h685v6zM438.991 664.006
c-1.33301 -0.666992 -2.33105 -0.666016 -2.99805 0.000976562c-1.33301 0 -2 1.66699 -2 5v21c0 2 0.666992 3.66699 2 5h3v2h-29l-2 -10l2 -1c0 1.33301 0.666992 2.66602 2 3.99902c1.33301 2.66699 3.66602 4 6.99902 4h4c2.66699 0 4 -1 4 -3v-10h-4
c-2 0 -3.66699 0.666992 -5 2c-0.666992 0.666992 -1 1.66699 -1 3h-2v-13h2c0 0.666992 0.333008 1.66699 1 3c2 2 3.66699 3 5 3h4v-11c0 -2 -1.33301 -3 -4 -3h-4c-2.66699 0 -5.33398 1.33301 -8.00098 4c-1.33301 1.33301 -2 3 -2 5l-2 -1l2 -11h30v2zM503.993 664.007
c-1.33301 -0.666992 -2.33008 -0.666992 -2.99707 0c-2 0 -3 1.66699 -3 5v21c0 2 1 3.66699 3 5h3v2h-18v-1v-1h2c2 -2 3 -3.66699 3 -5v-9h-17v9c0 2 0.666992 3.66699 2 5h3v1v1h-17v-2h2c2 -2 3 -3.66699 3 -5v-21c0 -1.33301 -0.333008 -2.16602 -1 -2.49902
s-1.33398 -0.833008 -2.00098 -1.5s-1.33398 -1 -2.00098 -1v-2h17v2c-1.33301 0 -2.33301 0.333008 -3 1c-1.33301 1.33301 -2 2.66602 -2 3.99902v10h17v-10c0 -3.33301 -1 -5 -3 -5c-0.666992 -0.666992 -1.33398 -0.666992 -2.00098 0v-2h18v2zM558.996 686.007
l0.00195312 4c0 1.33301 -0.166992 2.66602 -0.5 3.99902s-0.5 2.66602 -0.5 3.99902c-1.33301 -0.666992 -7 -1 -17 -1s-16 0.333008 -18 1c0 -1.33301 -0.166992 -2.66602 -0.5 -3.99902s-0.5 -2.66602 -0.5 -3.99902v-4h2c0.666992 1.33301 1.66699 2.66602 3 3.99902
c3.33301 3.33301 5.66602 5 6.99902 5c2 0 3 -1 3 -3v-23c0 -3.33301 -1 -5 -3 -5c-0.666992 -0.666992 -1.33398 -0.666992 -2.00098 0v-2h17v2c-1.33301 -0.666992 -2.33301 -0.666992 -3 0c-1.33301 0 -2 1.66699 -2 5v23c0 2 1 3 3 3s4.66699 -1.66699 8 -5
c1.33301 -1.33301 2 -2.66602 2 -3.99902h2zM283.998 -100.993c0 -2.66699 -1.33301 -4 -4 -4s-4 1.33301 -4 4s1.33301 4 4 4s4 -1.33301 4 -4zM715.998 -100.993c0 -2.66699 -1.33301 -4 -4 -4s-4 1.33301 -4 4s1.33301 4 4 4s4 -1.33301 4 -4zM142.998 -104.993h-1
l-11 23l-10 -23h-1l-12 34l6 1l7 -23l10 23h1l10 -23l7 22h6zM198.998 -104.993h-1l-11 23l-10 -23h-1l-12 34l6 1l7 -23l10 23h1l10 -23l7 22h6zM254.998 -104.993h-1l-11 23l-10 -23h-1l-12 34l6 1l7 -23l10 23h1l10 -23l7 22h6zM322.998 -75.9932h-12v-28h-6v28h-12v5h30
v-5zM350.998 -89.9932v-14h-6v14l-14 19l6 1l11 -15l9 14h7zM399.998 -81.9932c0 -8 -5.66699 -11.999 -17 -11.999v-10h-6v33c9.33301 1.33301 15.5 0.666016 18.5 -2.00098s4.5 -5.66699 4.5 -9zM446.998 -86.9922c0 -5.33301 -1.49902 -9.66602 -4.49902 -12.999
s-7.16699 -5 -12.5 -5s-9.5 1.66699 -12.5 5s-4.5 7.33301 -4.5 12c0 5.33301 1.66699 9.66602 5 12.999s7.66602 5 12.999 5c4.66699 0 8.5 -1.66699 11.5 -5s4.5 -7.33301 4.5 -12zM490.999 -100.992c-4 -2.66699 -8.33301 -3.99902 -13 -3.99902
c-5.33301 0 -9.66602 1.5 -12.999 4.5s-5 7.16699 -5 12.5s1.83301 9.66602 5.5 12.999s8.16699 5 13.5 5c4 0 8 -1.33301 12 -4l-2 -5c-2.66699 2.66699 -6.33398 4 -11.001 4c-8 0 -12 -4.33301 -12 -13c0 -8 4.33301 -12 13 -12c1.33301 0 3.33301 0.666992 6 2v7h-9v5
h15v-15zM526.999 -103.991l-8 10.999h-5v-11h-6v33c9.33301 1.33301 15.5 0.833008 18.5 -1.5s4.5 -5.16602 4.5 -8.49902c0 -4.66699 -2.33301 -8 -7 -10l10 -13h-7zM569.999 -103.992l-4 8h-14l-3 -8h-6l15 34h2l16 -34h-6zM611.999 -81.9922
c0 -8 -5.66699 -11.999 -17 -11.999v-10h-6v33c9.33301 1.33301 15.5 0.666016 18.5 -2.00098s4.5 -5.66699 4.5 -9zM649.999 -103.991v15h-16v-15h-6v33h6v-13h16v13h6v-33h-6zM688.999 -89.9912v-14h-6v14l-14 19l6 1l11 -15l9 14h7zM756.999 -101.991
c-2 -2 -5.33301 -3 -10 -3c-12 0 -18 5.66699 -18 17c0 5.33301 1.66699 9.66602 5 12.999s7.66602 5 12.999 5c4 0 7.66699 -1 11 -3l-2 -5c-2 2 -5 3 -9 3c-3.33301 0 -6.16602 -1.16699 -8.49902 -3.5s-3.5 -5.16602 -3.5 -8.49902c0 -8.66699 4.33301 -13 13 -13
c2.66699 0 6 1.33301 10 4zM805.999 -86.9912c0 -5.33301 -1.49902 -9.66602 -4.49902 -12.999s-7.16699 -5 -12.5 -5s-9.5 1.66699 -12.5 5s-4.5 7.33301 -4.5 12c0 5.33301 1.66699 9.66602 5 12.999s7.66602 5 12.999 5c4.66699 0 8.5 -1.66699 11.5 -5
s4.5 -7.33301 4.5 -12zM853 -103.991l-3 20l-10 -21h-2l-10 21l-3 -20h-6l6 34h1l13 -26l13 26h1l6 -34h-6zM101 0.00878906v750h767v-750h-767z" />
  </font>
</defs>
</svg>
